новый адрес
Ссылка на приватное зеркало всего за 1$. Внимание количество ограничено!!!

iTunes

1+1

iTunes

мы

iTunes

1

iTunes

Чернобыль

iTunes

Ральф против интернета

Лицензия

ПШазам

Лицензия

Оно 2

Лицензия

30
pack

Вам бонус

ВАЖНО

!!Акция!!

Alien_RageХит недели

RePack

Resident Evil 21

ИГРА 18+

pack

RePack

jed

!!Акция!!

Alien_Rage

RePack

fifa19

RePack

Assassins Creed: Odyssey

RePack

NEED FOR SPEED™ PAYBACK

3 сезон

9 сезон

Бесстыжие 9 сезон

Все сериалы

все сериалы на PB.wtf

RePack

FAR CRY 5
Ребята, катастрофически не хватает 1900р. для оплаты серверов за Октябрь (всвязи с блокировками трафик упал в 3 раза), 1-2р., выручайте.
  

Хроники хищных городов / Mortal Engines (Кристиан Риверс) [2018, фантастика, фэнтези, боевик, триллер, приключения, BDRip-AVC] DUB [Лицензия] - ExKinoRay pb.wtf

Хроники хищных городов через торрент pb.wtf

Раздают: 15 [ 244 KB/s ] Качают: 2 [ 566 KB/s ]
Размер: 2.59 GB | Добавлен: 7 мес. назад | Торрент скачан:243 раза
Скачать  

10-03-2019 20:27 Хроники хищных городов Скачать торрент  

Информация о фильме
Название: Хроники хищных городов
Оригинальное название: Mortal Engines
Год выпуска: 2018
Жанр: Фантастика, фэнтези, боевик, триллер, приключения
Режиссер: Кристиан Риверс
В ролях: Гера Хилмарсдоттир, Роберт Шиэн, Хьюго Уивинг, Джихе, Ронан Рафтери, Лейла Джордж, Патрик Мэлахайд, Стивен Лэнг, Колин Сэлмон, Марк Митчинсон, Меник Гунератне, Реге Пейдж, Фрэнки Адамс, Лейфур Сигурдарсон, Кан Уэст, Эндрю Лииз, Ки Чан, Сара Пирс, Марк Хэдлоу, Карен Писториус, Поппи Маклеод, Джоэл Тобек, Йосон Ан

Описание:
Прошли тысячелетия после того, как мир настиг апокалипсис. Человечество адаптировалось и теперь живет по новым правилам. Гигантские движущиеся мегаполисы рассекают пустоши и поглощают маленькие города ради ресурсов. Том Нэтсуорти из нижнего уровня великого Лондона оказывается в смертельной опасности, когда на его пути появляется скрывающаяся от закона бунтарка Эстер Шоу. Они не должны были встретиться, но им суждено изменить будущее.



Страна: Новая Зеландия, США
Студия: Media Rights Capital (MRC), Scholastic Productions, Silvertongue Films
Продолжительность: 02:08:21
Перевод: Дублированный | Лицензия
Субтитры: Русские, английские

Формат: MKV
Качество: BDRip-AVC
Видео: MPEG-4 AVC, 1024x428 (2.40:1), 23.976 fps, 1802 Kbps, 0.171 bit/pixel
Аудио 1: 48 kHz, AC3, 5.1, 448 Kbps | RUS |
Аудио 2: 48 kHz, AC3, 2.0, 192 Kbps | UKR |
Аудио 3: 48 kHz, AC3, 5.1, 448 Kbps | ENG |
General
Unique ID : 190753660034312486124678581283549517116 (0x8F81D18EDCBA98AAA53032A8C562953C)
Complete name : F:\Mortal.Engines.2018.BDRip.AVC.ExKinoRay.mkv
Format : Matroska
Format version : Version 2
File size : 2.59 GiB
Duration : 2 h 8 min
Overall bit rate : 2 889 kb/s
Movie name : Mortal Engines (2018) from ExKinoRay
Encoded date : UTC 2019-04-11 11:44:26
Writing application : mkvmerge v5.6.0 ('Kenya Kane') built on May 27 2012 16:44:04
Writing library : libebml v1.2.3 + libmatroska v1.3.0

Video
ID : 1
Format : AVC
Format/Info : Advanced Video Codec
Format profile : High@L4.1
Format settings, CABAC : Yes
Format settings, ReFrames : 12 frames
Codec ID : V_MPEG4/ISO/AVC
Duration : 2 h 8 min
Bit rate : 1 802 kb/s
Width : 1 024 pixels
Height : 428 pixels
Display aspect ratio : 2.40:1
Frame rate mode : Constant
Frame rate : 23.976 (23976/1000) FPS
Color space : YUV
Chroma subsampling : 4:2:0
Bit depth : 8 bits
Scan type : Progressive
Bits/(Pixel*Frame) : 0.171
Stream size : 1.56 GiB (60%)
Title : Enigma
Writing library : x264 core 152 r2851 ba24899
Encoding settings : cabac=1 / ref=12 / deblock=1:-3:-2 / analyse=0x3:0x113 / me=umh / subme=10 / psy=1 / psy_rd=0.98:0.08 / mixed_ref=1 / me_range=32 / chroma_me=1 / trellis=2 / 8x8dct=1 / cqm=0 / deadzone=21,11 / fast_pskip=0 / chroma_qp_offset=-3 / threads=12 / lookahead_threads=2 / sliced_threads=0 / nr=0 / decimate=0 / interlaced=0 / bluray_compat=0 / constrained_intra=0 / bframes=9 / b_pyramid=2 / b_adapt=2 / b_bias=0 / direct=3 / weightb=1 / open_gop=0 / weightp=2 / keyint=240 / keyint_min=23 / scenecut=40 / intra_refresh=0 / rc=2pass / mbtree=0 / bitrate=1802 / ratetol=1.0 / qcomp=0.60 / qpmin=0 / qpmax=51 / qpstep=4 / cplxblur=20.0 / qblur=0.5 / ip_ratio=1.40 / pb_ratio=1.30 / aq=2:0.90
Language : English
Default : Yes
Forced : No
Color range : Limited
Color primaries : BT.709
Transfer characteristics : BT.709
Matrix coefficients : BT.709

Audio #1
ID : 2
Format : AC-3
Format/Info : Audio Coding 3
Mode extension : CM (complete main)
Format settings, Endianness : Big
Codec ID : A_AC3
Duration : 2 h 8 min
Bit rate mode : Constant
Bit rate : 448 kb/s
Channel(s) : 6 channels
Channel positions : Front: L C R, Side: L R, LFE
Sampling rate : 48.0 kHz
Frame rate : 31.250 FPS (1536 spf)
Compression mode : Lossy
Stream size : 411 MiB (16%)
Title : Dub (License)
Language : Russian
Default : Yes
Forced : No

Audio #2
ID : 3
Format : AC-3
Format/Info : Audio Coding 3
Mode extension : CM (complete main)
Format settings, Endianness : Big
Codec ID : A_AC3
Duration : 2 h 8 min
Bit rate mode : Constant
Bit rate : 192 kb/s
Channel(s) : 2 channels
Channel positions : Front: L R
Sampling rate : 48.0 kHz
Frame rate : 31.250 FPS (1536 spf)
Compression mode : Lossy
Stream size : 176 MiB (7%)
Title : Dub (Студия LeDoyen)
Language : Ukrainian
Default : No
Forced : No

Audio #3
ID : 4
Format : AC-3
Format/Info : Audio Coding 3
Mode extension : CM (complete main)
Format settings, Endianness : Big
Codec ID : A_AC3
Duration : 2 h 8 min
Bit rate mode : Constant
Bit rate : 448 kb/s
Channel(s) : 6 channels
Channel positions : Front: L C R, Side: L R, LFE
Sampling rate : 48.0 kHz
Frame rate : 31.250 FPS (1536 spf)
Compression mode : Lossy
Stream size : 411 MiB (16%)
Language : English
Default : No
Forced : No

Text #1
ID : 5
Format : UTF-8
Codec ID : S_TEXT/UTF8
Codec ID/Info : UTF-8 Plain Text
Title : Forced
Language : Russian
Default : Yes
Forced : No

Text #2
ID : 6
Format : UTF-8
Codec ID : S_TEXT/UTF8
Codec ID/Info : UTF-8 Plain Text
Title : Full
Language : Russian
Default : No
Forced : No

Text #3
ID : 7
Format : UTF-8
Codec ID : S_TEXT/UTF8
Codec ID/Info : UTF-8 Plain Text
Language : English
Default : No
Forced : No

Menu
00:00:00.000 : en:Chapter 01
00:09:24.396 : en:Chapter 02
00:16:13.305 : en:Chapter 03
00:24:20.625 : en:Chapter 04
00:31:24.591 : en:Chapter 05
00:35:53.067 : en:Chapter 06
00:41:27.818 : en:Chapter 07
00:44:53.815 : en:Chapter 08
00:50:16.805 : en:Chapter 09
00:54:21.174 : en:Chapter 10
01:00:51.397 : en:Chapter 11
01:07:12.069 : en:Chapter 12
01:11:12.850 : en:Chapter 13
01:17:37.736 : en:Chapter 14
01:25:25.620 : en:Chapter 15
01:33:30.396 : en:Chapter 16
01:39:28.545 : en:Chapter 17
01:47:58.263 : en:Chapter 18
01:52:11.558 : en:Chapter 19
01:58:33.523 : en:Chapter 20
БЕЗ КАКОЙ-ЛИБО РЕКЛАМЫ!Релиз от:

Автор релиза: pb.wtf



Скачать Хроники хищных городов через торрент https://b.radikal.ru/b20/1901/53/31d9334a6785.png Скачать фильм Хроники хищных городов через торрент бесплантно в хорошем качестве Описание: Прошли тысячелетия после того, как мир настиг апокалипсис. Человечество адаптировалось и теперь живет по новым правилам. ... 9.4 10 8
Info! Золотая раздача, скачанное не засчитывается.
Торрент: Зарегистрирован [2019-04-11 12:04] · скачан: 243 раз
Статус: √ проверено
Размер: 2.59 GB
Как cкачать? Как скачать Хроники хищных городов через торрент | qTorrent

% Раздел Тема Автор DL S | L
Фильмы 2018 [DVDrip, WEB-DLRip, HDrip] (DUB, MVO) [ 2.05 GB ] Хроники хищных городов / Mortal Engines [2018 WEB-DLRip-AVC] - ExKinoRay Enigma2010 Скачать
20 | 0


Последний раз редактировалось: Enigma2010 (2019-04-11 12:04), всего редактировалось 1 раз
Отключить всю рекламу на сайте

10-03-2019 21:02 Хроники хищных городов Скачать торрент  

как фильм ?pb.wtf



11-03-2019 01:21 Хроники хищных городов Скачать торрент  

не оченьpb.wtf



11-03-2019 18:35 Хроники хищных городов Скачать торрент  

норм фильм, кто любитель стим-панк советую посмотреть! впечатления оставил приятные от фильма! другая реальность которой так не хватает в нашем мире! люди пошли по другой технологии развитияpb.wtf



11-04-2019 12:05 Хроники хищных городов Скачать торрент  

Замена на лицензию.pb.wtf



11-04-2019 13:53 Хроники хищных городов Скачать торрент  

не знаю что эти зажравшиеся комментаторы начинают капризничать.-фильм вообще супер.два раза пересмотрел.а тем более в качестве-всем к просмотру. pb.wtf



    Дорогой пользователь! Огромная просьба, поблагодарите релизера, оцените раздачу и оставьте свои комментарий, если Вы скачали Хроники хищных городов через торрент бесплатно! Внесите свою лепту в развитие PiratBit!
    Комментировать посты могут только пользователи прошедшие не сложную регистрацию
    Показать сообщения:    

    Хроники хищных городов через торрент
    Скачать бесплатно Хроники хищных городов
    Хроники хищных городов скачать торрент
    Хроники хищных городов смотреть онлайн
    Cкачать фильм Хроники хищных городов бесплатно
    Хроники хищных городов скачать торрент в хорошем качестве
    Хроники хищных городов смотреть онлайн бесплатно в хорошем качестве


    Вы не можете начинать темы
    Вы не можете отвечать на сообщения
    Вы не можете редактировать свои сообщения
    Вы не можете удалять свои сообщения
    Вы не можете голосовать в опросах
    Вы не можете прикреплять файлы к сообщениям
    Вы можете скачивать файлы