Ссылка на приватное зеркало нашего сайта всего за 1$. Внимание количество ограничено!!!

2 сезон

iTunes

1 сезон

1

2 сезон

2 сезон

iTunes

1 сезон

RePack

30

Ultimate

ВАЖНО

ИГРА 18+

pack

RePack

MK11
pack

Забери бонус

RePack

jed

!!Акция!!

Alien_Rage

RePack

fifa19

RePack

Assassins Creed: Odyssey

RePack

NEED FOR SPEED™ PAYBACK

4 сезон

9 сезон

Бесстыжие 9 сезон

Все сериалы

все сериалы на PB.wtf

RePack

FAR CRY 5
  

Родители лёгкого поведения / Drunk Parents (Фред Вульф) [2019, комедия, WEB-DL 720p] DUB [iTunes] pb.wtf

Родители лёгкого поведения через торрент pb.wtf

Размер: 3.03 GB | Добавлен: 1 год 7 мес. назад | Торрент скачан:218 раз
Скачать  

11-03-2019 07:18 Родители лёгкого поведения Скачать торрент  

Родители лёгкого поведения / Drunk Parents Год выпуска: 2019
Страна: США
Жанр: комедия
Продолжительность: 01:36:46
Перевод: Дублированный | iTunes
Субтитры: отсутствуют

Режиссер: Фред Вульф

rating

В ролях:

Сальма Хайек, Алек Болдуин, Бриджет Мойнэхэн, Джо Манганьелло, Трит Уильямс, Бен Платт, Саша Митчелл, Джим Гэффиган, Оливия Луккарди, Эйми Маллинз

Описание:

Семейная пара Фрэнк и Нэнси пытаются скрыть от друзей и дочери свой полный финансовый крах. Для этого они идут на всё, даже сдают в аренду чужой особняк. Но получится ли у двух горе-авантюристов провернуть свои невероятные махинации? Ведь каждый их шаг - отличный повод откупорить новую бутылку...

Качество: WEB-DL 720p
Формат: MKV

Видео: MPEG-4 AVC, 4011 Кбит/с, 1280x686
Аудио: AC3, 6 ch, 384 Кбит/с
скриншот  скриншот  скриншот  

Общее
Уникальный идентификатор : 220634743751876343339566104625338227072 (0xA5FCB4BADE755E819729145F80C99980)
Полное имя : D:\Drunk.Parents.2018.WEB-DL.720p.ELEKTRI4KA.UNIONGANG.mkv
Формат : Matroska
Версия формата : Version 2
Размер файла : 3,03 Гбайт
Продолжительность : 1 ч. 36 м.
Общий поток : 4484 Кбит/сек
Название фильма : ELEKTRI4KA.UNIONGANG
Дата кодирования : UTC 2019-04-21 20:01:19
Программа кодирования : mkvmerge v7.8.0 ('River Man') 32bit built on Apr 3 2015 12:11:22
Библиотека кодирования : libebml v1.3.1 + libmatroska v1.4.2

Видео
Идентификатор : 2
Формат : AVC
Формат/Информация : Advanced Video Codec
Профиль формата : High@L3.1
Параметр CABAC формата : Нет
Параметр RefFrames формата : 2 кадра
Идентификатор кодека : V_MPEG4/ISO/AVC
Продолжительность : 1 ч. 36 м.
Битрейт : 4011 Кбит/сек
Ширина : 1280 пикселей
Высота : 686 пикселей
Соотношение сторон : 1,85:1
Режим частоты кадров : Постоянный
Частота кадров : 23,976 (24000/1001) кадра/сек
Цветовое пространство : YUV
Субдискретизация насыщенности : 4:2:0
Битовая глубина : 8 бит
Тип развёртки : Прогрессивная
Бит/(Пиксели*Кадры) : 0.191
Размер потока : 2,71 Гбайт (89%)
Язык : English
Default : Да
Forced : Нет
Цветовой диапазон : Limited
Основные цвета : BT.709
Характеристики трансфера : BT.709
Коэффициенты матрицы : BT.709

Аудио
Идентификатор : 1
Формат : AC-3
Формат/Информация : Audio Coding 3
Расширение режима : CM (complete main)
Параметр Endianness формата : Big
Идентификатор кодека : A_AC3
Продолжительность : 1 ч. 36 м.
Вид битрейта : Постоянный
Битрейт : 384 Кбит/сек
Каналы : 6 каналов
Расположение каналов : Front: L C R, Side: L R, LFE
Частота : 48,0 КГц
Частота кадров : 31,250 кадров/сек (1536 spf)
Метод сжатия : С потерями
Размер потока : 266 Мбайт (9%)
Заголовок : itunes.ELEKTRI4KA.UNIONGANG
Язык : Russian
Default : Да
Forced : Нет

Меню
00:00:00.000 : en:1
00:01:03.000 : en:2
00:12:59.000 : en:3
00:23:47.000 : en:4
00:34:57.000 : en:5
00:46:24.000 : en:6
00:56:17.000 : en:7
01:07:26.000 : en:8
01:17:15.000 : en:9
01:30:15.000 : en:10
pb.wtf



Скачать Родители лёгкого поведения через торрент https://c.radikal.ru/c24/1903/92/1c7adfece92b.jpg Скачать фильм Родители лёгкого поведения через торрент бесплантно в хорошем качестве Описание: Семейная пара Фрэнк и Нэнси пытаются скрыть от друзей и дочери свой полный финансовый крах. Для этого они идут на всё, даже сдают ... 8.2 10 13
Info! Золотая раздача, скачанное не засчитывается.
Торрент: Зарегистрирован [2019-04-22 12:24] · скачан: 218 раз
Статус: √ проверено
Размер: 3.03 GB
Как cкачать? Как скачать Родители лёгкого поведения через торрент | qTorrent

% Раздел Тема Автор DL S | L
Фильмы 2019-2020 [DVDrip, WEB-DLRip, HDrip] (DUB, MVO) [ 1.46 GB ] Родители лёгкого поведения / Drunk Parents [2019 BDRip] - [ R5] Twi7ter Скачать
45 | 0
Фильмы (Blu-ray, BD-Remux, HDDVD) [ 22.71 GB ] Родители лёгкого поведения / Drunk Parents [2019 BD Remux 1080p] DUB [ R5] +MVO [HDrezka Studio] bober100 Скачать
1 | 0
Фильмы [HD 720p, 1080p] (Хороший звук DUB, MVO) [ 5.26 GB ] Родители лёгкого поведения / Drunk Parents [2019 BDRip 720p] DUB [ R5] +MVO [HDrezka Studio] bober100 Скачать
1 | 0
Фильмы [HD 720p, 1080p] (Хороший звук DUB, MVO) [ 11.7 GB ] Родители лёгкого поведения / Drunk Parents [2019 BDRip 1080p] DUB [ R5] +MVO [HDrezka Studio] bober100 Скачать
1 | 0
Фильмы 2019-2020 [DVDrip, WEB-DLRip, HDrip] (DUB, MVO) [ 1.38 GB ] Родители лёгкого поведения / Drunk Parents [2019 WEB-DLRip] bober100 Скачать
1 | 0
Фильмы (WEB-DL 720p, 1080p) [ 3.69 GB ] Родители лёгкого поведения / Drunk Parents [2019 WEB-DL 1080p] bober100 Скачать
1 | 0

28-11-2019 20:33  

Отключить всю рекламу на сайте

    Дорогой пользователь! Огромная просьба, поблагодарите релизера, оцените раздачу и оставьте свои комментарий, если Вы скачали Родители лёгкого поведения через торрент бесплатно! Внесите свою лепту в развитие PiratBit!
    Комментировать посты могут только пользователи прошедшие не сложную регистрацию
    Показать сообщения:    

    Родители лёгкого поведения через торрент
    Скачать бесплатно Родители лёгкого поведения
    Родители лёгкого поведения скачать торрент
    Родители лёгкого поведения смотреть онлайн
    Cкачать фильм Родители лёгкого поведения бесплатно
    Родители лёгкого поведения скачать торрент в хорошем качестве
    Родители лёгкого поведения смотреть онлайн бесплатно в хорошем качестве


    Вы не можете начинать темы
    Вы не можете отвечать на сообщения
    Вы не можете редактировать свои сообщения
    Вы не можете удалять свои сообщения
    Вы не можете голосовать в опросах
    Вы не можете прикреплять файлы к сообщениям
    Вы можете скачивать файлы