Ссылка на приватное зеркало всего за 1$. Внимание количество ограничено!!!

OK

1+1

iTunes

мы

OK

1

WEB-DLRip

Джокер

Пифагор

Ведьмак / The Witcher сериал

iTunes

ПШазам

ОК

Оно 2

iTunes

30
pack

Вам бонус

ВАЖНО

!!Акция!!

Alien_RageХит недели

RePack

Resident Evil 21

ИГРА 18+

pack

RePack

jed

RePack

fifa19

RePack

Assassins Creed: Odyssey

RePack

NEED FOR SPEED™ PAYBACK

4 сезон

9 сезон

Бесстыжие 9 сезон

Все сериалы

все сериалы на PB.wtf

RePack

FAR CRY 5
  

Святой Николас / Saint Nicholas (Хосе А. Эскуа) [2018, Триллер, драма, криминал, WEB-DL 720p] MVO ["Синема УС"] pb.wtf

Святой Николас через торрент pb.wtf

Размер: 2.22 GB | Добавлен: 10 мес. назад | Торрент скачан:52 раза
Скачать  

11-03-2019 12:07 Святой Николас Скачать торрент  

Святой Николас / Saint NicholasГод выпуска: 2018
Страна: США
Жанр: Триллер, драма, криминал
Продолжительность: 01:06:44
Перевод: Любительский (многоголосый) | "Синема УС"
Субтитры: отсутствуют

Режиссер: Хосе А. Эскуа

rating

В ролях:

Монте Безелл, Франческа Ван Хорн, А.Р. Гарсия, Эшлинн Александр, Авраам Макани, Каролина Равасса, Питер Ганим, Майкл Дж. Дойл, Карина Кудзина, Сэди Шарп

Описание:

Уголовный адвокат, помешанный на женщинах и наркотиках, пытается вернуть свою жизнь в нормальное русло, чтобы защитить своего друга от пожизненного срока. В попытке получить доступ к сильнодействующему снотворному, он нанимает психотерапевта, но общение с ней даёт ему шанс осознать корень своих ментальных проблем и найти способ побороть внутренних демонов.

Качество: WEB-DL 720p
Формат: MKV

Видео: h.264 4 371 Кбит/с, 1280x720
Аудио#1: Русский, (AC3, 2 ch, 384 Кбит/с)
скриншот  скриншот  скриншот  

Общее
Уникальный идентификатор : 249761284801005875679064513003009994144 (0xBBE6461379FF3DB683B7426BF7E9EDA0)
Полное имя : D:\Saint.Nicholas.2018.P.WEB-DL.72Op.mkv
Формат : Matroska
Версия формата : Version 2
Размер файла : 2,22 Гбайт
Продолжительность : 1 ч. 6 м.
Режим общего битрейта : Переменный
Общий поток : 4757 Кбит/сек
Дата кодирования : UTC 2019-03-10 16:35:34
Программа кодирования : mkvmerge v8.3.0 ('Over the Horizon') 64bit
Библиотека кодирования : libebml v1.3.1 + libmatroska v1.4.2

Видео
Идентификатор : 1
Формат : AVC
Формат/Информация : Advanced Video Codec
Профиль формата : High@L4.1
Параметр CABAC формата : Да
Параметр RefFrames формата : 4 кадра
Идентификатор кодека : V_MPEG4/ISO/AVC
Продолжительность : 1 ч. 6 м.
Вид битрейта : Переменный
Битрейт : 4371 Кбит/сек
Максимальный битрейт : 5000 Кбит/сек
Ширина : 1280 пикселей
Высота : 720 пикселей
Соотношение сторон : 16:9
Режим частоты кадров : Постоянный
Частота кадров : 23,976 (24000/1001) кадра/сек
Стандарт вещания : Component
Цветовое пространство : YUV
Субдискретизация насыщенности : 4:2:0
Битовая глубина : 8 бит
Тип развёртки : Прогрессивная
Бит/(Пиксели*Кадры) : 0.194
Размер потока : 1,99 Гбайт (90%)
Default : Да
Forced : Нет
Цветовой диапазон : Limited
Основные цвета : BT.709
Характеристики трансфера : BT.709
Коэффициенты матрицы : BT.709

Аудио
Идентификатор : 2
Формат : AC-3
Формат/Информация : Audio Coding 3
Расширение режима : CM (complete main)
Параметр Endianness формата : Big
Идентификатор кодека : A_AC3
Продолжительность : 1 ч. 6 м.
Вид битрейта : Постоянный
Битрейт : 384 Кбит/сек
Каналы : 2 канала
Расположение каналов : Front: L R
Частота : 48,0 КГц
Частота кадров : 31,250 кадров/сек (1536 spf)
Метод сжатия : С потерями
Размер потока : 183 Мбайт (8%)
Default : Да
Forced : Нет

pb.wtf



Скачать Святой Николас через торрент https://a.radikal.ru/a24/1903/89/05f7e4f3c77a.jpg Скачать фильм Святой Николас через торрент бесплантно в хорошем качестве Описание: Уголовный адвокат, помешанный на женщинах и наркотиках, пытается вернуть свою жизнь в нормальное русло, чтобы защитить своего ... 10 10 3
Торрент: Зарегистрирован [2019-03-11 12:07] · скачан: 52 раз
Статус: T временная
Размер: 2.22 GB
Как cкачать? Как скачать Святой Николас через торрент | qTorrent

% Раздел Тема Автор DL S | L
T Фильмы (мультфильмы) cо спонсором показа (Новинки AVI/MKV) [ 1.34 GB ] Святой Николас / Saint Nicholas [2018 WEB-DLRip] MVO ["Синема УС"] bober100 Скачать
1 | 0

28-11-2019 20:33  

Отключить всю рекламу на сайте

    Дорогой пользователь! Огромная просьба, поблагодарите релизера, оцените раздачу и оставьте свои комментарий, если Вы скачали Святой Николас через торрент бесплатно! Внесите свою лепту в развитие PiratBit!
    Комментировать посты могут только пользователи прошедшие не сложную регистрацию
    Показать сообщения:    

    Святой Николас через торрент
    Скачать бесплатно Святой Николас
    Святой Николас скачать торрент
    Святой Николас смотреть онлайн
    Cкачать фильм Святой Николас бесплатно
    Святой Николас скачать торрент в хорошем качестве
    Святой Николас смотреть онлайн бесплатно в хорошем качестве


    Вы не можете начинать темы
    Вы не можете отвечать на сообщения
    Вы не можете редактировать свои сообщения
    Вы не можете удалять свои сообщения
    Вы не можете голосовать в опросах
    Вы не можете прикреплять файлы к сообщениям
    Вы можете скачивать файлы