Ссылка на приватное зеркало нашего сайта всего за 1$. Внимание количество ограничено!!!

2 сезон

iTunes

1 сезон

1

2 сезон

2 сезон

iTunes

1 сезон

RePack

30

Новинка

ВАЖНО

ИГРА 18+

pack

RePack

MK11
pack

Забери бонус

RePack

jed

!!Акция!!

Alien_Rage

RePack

fifa19

RePack

Assassins Creed: Odyssey

RePack

NEED FOR SPEED™ PAYBACK

4 сезон

9 сезон

Бесстыжие 9 сезон

Все сериалы

все сериалы на PB.wtf

RePack

FAR CRY 5
  

Шальная карта / Wild Card (Саймон Уэст) [2015 г., Боевик, триллер, драма, криминал, BD Remux, Профессиональный (многоголосый)] pb.wtf

Шальная карта через торрент pb.wtf

Размер: 16.12 GB | Добавлен: 1 год 8 мес. назад | Торрент скачан:8 раз
Скачать  

11-03-2019 12:43 Шальная карта Скачать торрент  

Шальная карта / Wild Card
Год выпуска: 2015
Страна: США
Жанр: Боевик, триллер, драма, криминал
Продолжительность: 01:32:20
Перевод: Профессиональный (многоголосый) +Любительский (Paradox) +Авторский (М Яроцкий) +Комментарии +Оригинал
Субтитры: Русские, английские

Режиссер: Саймон Уэст

В ролях: Джейсон Стэйтем, Майкл Ангарано, Майло Вентимилья, Доминик Гарсиа-Лоридо, Энн Хеч, София Вергара, Макс Казелла, Хоуп Дэвис

Описание: Главный герой — бывший военный Ник Эскаланте — работает в Лас-Вегасе охранником, мечтает накопить денег и навсегда уехать в Венецию. Но Ник соглашается помочь проститутке Холли, постоянно подвергающейся насилию со стороны сына крупного гангстера, из-за чего отъезд в Венецию затягивается.

Качество: BD Remux
Формат: MKV
Видео кодек: AVC
Аудио кодек: AC3-DTS
Видео: MPEG-4 AVC, (1920x1080),39 000 Кбит/с, 23.976 кадра/сек
Аудио#1: AC3, 6 ch,384 kbps (Rus) 48.0 KHz Профессиональный (многоголосый)
Аудио#2: AC3, 6 ch,384 kbps (Rus) 48.0 KHz Любительский (Paradox)
Аудио#3: AC3, 6 ch,384 kbps (Rus) 48.0 KHz Авторский (М Яроцкий)
Аудио#4: AC3, 2 ch,256 kbps (Eng) 48.0 KHz Комментарии
Аудио#5: DTS, 6 ch,3672 kbps (Eng) 48.0 KHz Оригинал
скриншот   скриншот   скриншот  

Тип потока: Видео
Длительность: 01:32:20
Кодек: AVC
Кодек/описание: Advanced Video Codec
Кодек/профиль: High@L4.1
Кодек/ID: V_MPEG4/ISO/AVC
Кодек/CABAC: Yes
Кодек/ReFrames: 4 frames
Размеры изображения: 1920 x 1080 (16:9)
Частота кадров: 23.976 fps
Частота кадров/тип: Constant
Битрейт/макс: 39.0 Mbps
Битрейт/тип: VBR
Цветовое пространство: YUV
Тип развёртки: Progressive
Колориметрия: 4:2:0
Глубина: 8 bits
:
Тип потока: Звук #1
Язык: Russian
Название: MVO, iTunes
Длительность: 01:32:20.640
Кодек: AC-3
Кодек/описание: Audio Coding 3
Кодек/ID: A_AC3
Частота дискретизации: 48.0 KHz
Каналов: 6 channels
Битрейт: 384 Kbps
Битрейт/тип: Constant
Размер потока: 254 MiB (2%)
Глубина: 16 bits
Метод сжатия: Lossy
:
Тип потока: Звук #2
Язык: Russian
Название: MVO, Paradox
Длительность: 01:32:20.640
Кодек: AC-3
Кодек/описание: Audio Coding 3
Кодек/ID: A_AC3
Частота дискретизации: 48.0 KHz
Каналов: 6 channels
Битрейт: 384 Kbps
Битрейт/тип: Constant
Размер потока: 254 MiB (2%)
Глубина: 16 bits
Метод сжатия: Lossy
:
Тип потока: Звук #3
Язык: Russian
Название: М. Яроцкий
Длительность: 01:32:20.640
Кодек: AC-3
Кодек/описание: Audio Coding 3
Кодек/ID: A_AC3
Частота дискретизации: 48.0 KHz
Каналов: 6 channels
Битрейт: 384 Kbps
Битрейт/тип: Constant
Размер потока: 254 MiB (2%)
Глубина: 16 bits
Метод сжатия: Lossy
:
Тип потока: Звук #4
Язык: English
Длительность: 01:32:20.640
Кодек: DTS
Кодек/описание: Digital Theater Systems
Кодек/профиль: MA / Core
Кодек/ID: A_DTS
Частота дискретизации: 48.0 KHz
Каналов: 6 channels
Битрейт: Unknown / 1 509 Kbps
Битрейт/тип: Variable
Глубина: 24 bits
Метод сжатия: Lossless / Lossy
:
Тип потока: Звук #5
Язык: English
Название: Commentary with Director Simon West
Длительность: 01:32:20.640
Кодек: AC-3
Кодек/описание: Audio Coding 3
Кодек/ID: A_AC3
Частота дискретизации: 48.0 KHz
Каналов: 2 channels
Битрейт: 256 Kbps
Битрейт/тип: Constant
Размер потока: 169 MiB (1%)
Глубина: 16 bits
Метод сжатия: Lossy
:
Тип потока: Субтитры #1
Язык: Russian
Формат: UTF-8
Формат/подробно: UTF-8 Plain Text
Название: нотабеноид
:
Тип потока: Субтитры #2
Язык: English
Формат: UTF-8
Формат/подробно: UTF-8 Plain Text
Название: full
:
Тип потока: Субтитры #3
Язык: English
Формат: UTF-8
Формат/подробно: UTF-8 Plain Text
Название: SDH

pb.wtf



Скачать Шальная карта через торрент http://pic1.kartinco.top/images/12/3r2zv.jpg Скачать фильм Шальная карта через торрент бесплантно в хорошем качестве Описание: Главный герой — бывший военный Ник Эскаланте — работает в Лас-Вегасе охранником, мечтает накопить денег и навсегда уехать в ... 10 10 3
Торрент: Зарегистрирован [2019-03-11 12:43] · скачан: 8 раз
Статус: √ проверено
Размер: 16.12 GB
Как cкачать? Как скачать Шальная карта через торрент | qTorrent

% Раздел Тема Автор DL S | L
# Фильмы [HD 720p, 1080p] (Хороший звук DUB, MVO) [ 9.33 GB ] Шальная карта / Wild Card [2015 BDRip ] Бумер Скачать
2 | 0
Фильмы 2015 [DVDrip, WEB-DLRip, HDrip] [ 1.42 GB ] Шальная карта / Wild Card [2015 BDRip] - Twi7ter Скачать
2 | 0
R.G. Resident & PiratVoice - Фильмы, Видео [ 2.05 GB ] Шальная карта / Wild Card [2015 BDRip-AVC от R.G. Resident] MVO [Студия "Paradox"] AVO [М.Яроцкий] -Lexx- Скачать
2 | 0
Фильмы с авторской озвучкой [ 1.46 GB ] Шальная карта / Wild Card [2015 HDRip] [Расширенная версия / Extended Cut] [AVO] killermax2013 Скачать
1 | 0

28-11-2019 20:33  

Отключить всю рекламу на сайте

11-03-2019 12:50 Шальная карта Скачать торрент  

фильм класс
5000 т очков золотая роздачаpb.wtf



    Дорогой пользователь! Огромная просьба, поблагодарите релизера, оцените раздачу и оставьте свои комментарий, если Вы скачали Шальная карта через торрент бесплатно! Внесите свою лепту в развитие PiratBit!
    Комментировать посты могут только пользователи прошедшие не сложную регистрацию
    Показать сообщения:    

    Шальная карта через торрент
    Скачать бесплатно Шальная карта
    Шальная карта скачать торрент
    Шальная карта смотреть онлайн
    Cкачать фильм Шальная карта бесплатно
    Шальная карта скачать торрент в хорошем качестве
    Шальная карта смотреть онлайн бесплатно в хорошем качестве


    Вы не можете начинать темы
    Вы не можете отвечать на сообщения
    Вы не можете редактировать свои сообщения
    Вы не можете удалять свои сообщения
    Вы не можете голосовать в опросах
    Вы не можете прикреплять файлы к сообщениям
    Вы можете скачивать файлы