Ссылка на приватное зеркало всего за 1$. Внимание количество ограничено!!!

OK

1+1

iTunes

мы

OK

1

WEB-DLRip

Джокер

Пифагор

Ведьмак / The Witcher сериал

Лицензия

ПШазам

ОК

Оно 2

iTunes

30
pack

Вам бонус

ВАЖНО

!!Акция!!

Alien_RageХит недели

RePack

Resident Evil 21

ИГРА 18+

pack

RePack

jed

!!Акция!!

Alien_Rage

RePack

fifa19

RePack

Assassins Creed: Odyssey

RePack

NEED FOR SPEED™ PAYBACK

4 сезон

9 сезон

Бесстыжие 9 сезон

Все сериалы

все сериалы на PB.wtf

RePack

FAR CRY 5
  

Взрыватель / Knock Off (Тсуи Харк) [1998 г., Боевик, триллер, комедия, BDRip 720p / 60 FPS] MVO от R.G. HD-Films pb.wtf

Взрыватель через торрент pb.wtf

Размер: 3.4 GB | Добавлен: 10 мес. назад | Торрент скачан:56 раз
Скачать  

11-03-2019 14:35 Взрыватель Скачать торрент  

Взрыватель / Knock Off
Год выпуска: 1998
Страна: Гонконг, США
Жанр: Боевик, триллер, комедия
Продолжительность: 01:30:15
Перевод: MVO[Екатеринбург Арт]
Режиссер: Тсуи Харк

Бюджет: $35 000 000
Премьера в мире: 27 мая 1998



В ролях: Жан-Клод Ван Дамм, Роб Шнайдер, Лила Рошон, Пол Сорвино, Карман Ли, Уаймэн Вонг, Глен Чин, Майкл Вонг, Моусес Чан, Линн Лэнгдон

Описание: 1997 год. Гонконг — центр подделок. Русские террористы из спецслужб задумали операцию по глобальному шантажу США. Войдя в сговор с мафией, «гастролеры» из России напичкали миниатюрными дистанционными взрывателями поддельные товары — игрушки и джинсы, которые должны были попасть в Штаты. Маркус Рей и его компаньон Томми Хендрик занимались поставкой товаров в США и попали прямо в центр событий, когда взялись за расследование о поддельных джинсах, которое вывело их на террористов…

Качество: BDRip 720p / 60 FPS
Формат: MKV
Видео кодек: H.264
Аудио кодек: AC3
Видео: x264, 1280 x 544 (2,35:1), 4908 kbps, 60,000 fps, ( 0.117bpp)
Аудио#1: Русский, AC-3, 48.0 KHz, 6 ch, 384 Kbps MVO[Екатеринбург Арт]
скриншот   скриншот   скриншот   скриншот   скриншот  
Автор рипа: slaventi-69
x264 [info]: profile High, level 4.1
x264 [info]: frame I:2165 Avg QP:17.80 size: 82833
x264 [info]: frame P:89255 Avg QP:20.85 size: 21393
x264 [info]: frame B:233483 Avg QP:23.91 size: 5582
x264 [info]: consecutive B-frames: 4.6% 4.2% 14.7% 24.0% 52.5%


Общее
Уникальный идентификатор : 223503817982126031235977657051967671376 (0xA8254502C79B699095CE968CBADC4C50)
Полное имя : D:\Knock.Off.(1998).BDRip.720p.(60 Fps).mkv
Формат : Matroska
Версия формата : Version 4 / Version 2
Размер файла : 3,40 Гбайт
Продолжительность : 1 ч. 30 м.
Общий поток : 5399 Кбит/сек
Название фильма : Взрыватель / Knock Off (1998) BDRip 720p (60 Fps)
Дата кодирования : UTC 2019-03-11 13:18:19
Программа кодирования : mkvmerge v12.0.0 ('Trust / Lust') 64bit
Библиотека кодирования : libebml v1.3.4 + libmatroska v1.4.5
DURATION : 01:30:15.104000000
NUMBER_OF_FRAMES : 169222
NUMBER_OF_BYTES : 259924992
_STATISTICS_WRITING_APP : mkvmerge v12.0.0 ('Trust / Lust') 64bit
_STATISTICS_WRITING_DATE_UTC : 2019-03-11 13:18:19
_STATISTICS_TAGS : BPS DURATION NUMBER_OF_FRAMES NUMBER_OF_BYTES

Видео
Идентификатор : 1
Формат : AVC
Формат/Информация : Advanced Video Codec
Профиль формата : High@L4.1
Параметр CABAC формата : Да
Параметр ReFrames формата : 4 кадра
Идентификатор кодека : V_MPEG4/ISO/AVC
Продолжительность : 1 ч. 30 м.
Битрейт : 4908 Кбит/сек
Ширина : 1280 пикселей
Высота : 544 пикселя
Соотношение сторон : 2,35:1
Режим частоты кадров : Постоянный
Частота кадров : 60,000 кадров/сек
Цветовое пространство : YUV
Субдискретизация насыщенности : 4:2:0
Битовая глубина : 8 бит
Тип развёртки : Прогрессивная
Бит/(Пиксели*Кадры) : 0.117
Размер потока : 3,09 Гбайт (91%)
Заголовок : slaventi-69 ( R.G. HD-Films | 60 fps )
Библиотека кодирования : x264 core 130 r2273 b3065e6
Настройки программы : cabac=1 / ref=4 / deblock=1:-1:-1 / analyse=0x3:0x113 / me=umh / subme=8 / psy=1 / psy_rd=1.00:0.00 / mixed_ref=1 / me_range=24 / chroma_me=1 / trellis=2 / 8x8dct=1 / cqm=0 / deadzone=21,11 / fast_pskip=1 / chroma_qp_offset=-2 / threads=10 / lookahead_threads=8 / sliced_threads=0 / nr=0 / decimate=1 / interlaced=0 / bluray_compat=0 / constrained_intra=0 / bframes=4 / b_pyramid=2 / b_adapt=2 / b_bias=0 / direct=2 / weightb=1 / open_gop=0 / weightp=2 / keyint=250 / keyint_min=25 / scenecut=40 / intra_refresh=0 / rc_lookahead=40 / rc=crf / mbtree=1 / crf=18.0 / qcomp=0.60 / qpmin=0 / qpmax=69 / qpstep=4 / ip_ratio=1.40 / aq=1:1.00
Язык : English
Default : Да
Forced : Нет

Аудио
Идентификатор : 2
Формат : AC-3
Формат/Информация : Audio Coding 3
Расширение режима : CM (complete main)
Параметр Endianness формата : Big
Идентификатор кодека : A_AC3
Продолжительность : 1 ч. 30 м.
Вид битрейта : Постоянный
Битрейт : 384 Кбит/сек
Каналы : 6 каналов
Расположение каналов : Front: L C R, Side: L R, LFE
Частота : 48,0 КГц
Битовая глубина : 16 бит
Метод сжатия : С потерями
Размер потока : 248 Мбайт (7%)
Заголовок : MVO[Екатеринбург Арт]
Язык : Russian
Default : Да
Forced : Нет

pb.wtf



Скачать Взрыватель через торрент http://img12.lostpic.net/2018/05/20/e0ccb06ae28ff71ad9d98361d7b0ca03.png Скачать фильм Взрыватель через торрент бесплантно в хорошем качестве Описание: 1997 год. — центр подделок. Русские террористы из спецслужб задумали операцию по глобальному шантажу США. Войдя в сговор ... 9.8 10 5
Торрент: Зарегистрирован [2019-03-11 14:35] · скачан: 56 раз
Статус: T временная
Размер: 3.4 GB
Как cкачать? Как скачать Взрыватель через торрент | qTorrent

28-11-2019 20:33  

Отключить всю рекламу на сайте

    Дорогой пользователь! Огромная просьба, поблагодарите релизера, оцените раздачу и оставьте свои комментарий, если Вы скачали Взрыватель через торрент бесплатно! Внесите свою лепту в развитие PiratBit!
    Комментировать посты могут только пользователи прошедшие не сложную регистрацию
    Показать сообщения:    

    Взрыватель через торрент
    Скачать бесплатно Взрыватель
    Взрыватель скачать торрент
    Взрыватель смотреть онлайн
    Cкачать фильм Взрыватель бесплатно
    Взрыватель скачать торрент в хорошем качестве
    Взрыватель смотреть онлайн бесплатно в хорошем качестве


    Вы не можете начинать темы
    Вы не можете отвечать на сообщения
    Вы не можете редактировать свои сообщения
    Вы не можете удалять свои сообщения
    Вы не можете голосовать в опросах
    Вы не можете прикреплять файлы к сообщениям
    Вы можете скачивать файлы