Ссылка на приватное зеркало нашего сайта всего за 1$. Внимание количество ограничено!!!

2 сезон

iTunes

1 сезон

1

2 сезон

2 сезон

iTunes

1 сезон

RePack

30

Новинка

ВАЖНО

ИГРА 18+

pack

RePack

MK11
pack

Забери бонус

RePack

jed

!!Акция!!

Alien_Rage

RePack

fifa19

RePack

Assassins Creed: Odyssey

RePack

NEED FOR SPEED™ PAYBACK

4 сезон

9 сезон

Бесстыжие 9 сезон

Все сериалы

все сериалы на PB.wtf

RePack

FAR CRY 5
  

Американские боги / American Gods / Сезон: 1 / Серии: 1-8 из 8 (Дэвид Слэйд) [2017, фэнтези, детектив, драма, WEB-DL 1080p] MVO [TVShows] pb.wtf

Американские боги через торрент pb.wtf

Размер: 33.18 GB | Добавлен: 1 год 8 мес. назад | Торрент скачан:47 раз
Скачать  

11-03-2019 14:59 Американские боги Скачать торрент  

Американские боги | American Gods Год выпуска: 2017
Страна: США
Жанр: Фэнтези, детектив
Продолжительность: ~ 00:59:00
Перевод: Профессиональный (многоголосый закадровый) | TVShows
Субтитры: английские

Режиссёр: Дэвид Слэйд

В ролях:

Рики Уиттл, Иэн МакШейн, Эмили Браунинг, Пабло Шрайбер, Брюс Лэнгли, Джонатан Такер, Джиллиан Андерсон, Клорис Личмен и др.

Описание:

Тень — человек с прошлым. Но теперь единственное, чего он хочет — это жить тихой и спокойной жизнью со своей женой в стороне от проблем. Пока он не узнает о ее гибели в результате несчастного случая. По пути на похороны домой, когда сильнейший шторм сотрясает самолет, ему представляется странный человек с соседнего кресла. Он называет себя мистер Среда. И он знает о Тени больше, чем кажется возможным. Он предупреждает Тень, что грядет ещё больший шторм. И ничто с этого момента, включая его самого, не будет таким, как прежде.



Качество: WEBRip 1080p
Формат: MKV

Видео: 1920x1080 (16:9) | X264/MPEG4-AVC | ~12500 kbps | 23.976 fps
Аудио 1: AC3 | 48 KHz | 5.1 (Front: L С R Side: L R) + LFE | ~384 kbps [RUS]
Аудио 2: E-AC3 | 48 KHz | 5.1 (Front: L С R Side: L R) + LFE | ~640 kbps [ENG]
Общее
Уникальный идентификатор : 6197879598035068023223212074415590000 (0x4A9AB0E90008F7D763AD80CD49A8A70)
Полное имя : I:\Тифайл\Скачанные на заливку\American.Gods.S01.1080p.TVShows\American.Gods.S01E01.1080p.TVShows.mkv
Формат : Matroska
Версия формата : Version 4 / Version 2
Размер файла : 4,84 Гбайт
Продолжительность : 1 ч. 2 м.
Общий поток : 11,0 Мбит/сек
Дата кодирования : UTC 2018-09-20 11:46:49
Программа кодирования : mkvmerge v24.0.0 ('Beyond The Pale') 64-bit
Библиотека кодирования : libebml v1.3.6 + libmatroska v1.4.9

Видео
Идентификатор : 1
Формат : AVC
Формат/Информация : Advanced Video Codec
Профиль формата : High@L4.1
Параметр CABAC формата : Да
Параметр ReFrames формата : 4 кадра
Идентификатор кодека : V_MPEG4/ISO/AVC
Продолжительность : 1 ч. 2 м.
Битрейт : 10,0 Мбит/сек
Ширина : 1920 пикселей
Высота : 1080 пикселей
Соотношение сторон : 16:9
Режим частоты кадров : Постоянный
Частота кадров : 23,976 (24000/1001) кадра/сек
Цветовое пространство : YUV
Субдискретизация насыщенности : 4:2:0
Битовая глубина : 8 бит
Тип развёртки : Прогрессивная
Бит/(Пиксели*Кадры) : 0.201
Размер потока : 4,39 Гбайт (91%)
Библиотека кодирования : x264 core 148 r2744kMod b97ae06
Настройки программы : cabac=1 / ref=4 / deblock=1:-3:-3 / analyse=0x3:0x133 / me=umh / subme=11 / psy=1 / fade_compensate=0.00 / psy_rd=1.00:0.00 / mixed_ref=1 / me_range=32 / chroma_me=1 / trellis=2 / 8x8dct=1 / cqm=0 / deadzone=21,11 / fast_pskip=0 / chroma_qp_offset=-2 / threads=12 / lookahead_threads=2 / sliced_threads=0 / nr=0 / decimate=0 / interlaced=0 / bluray_compat=0 / constrained_intra=0 / bframes=8 / b_pyramid=2 / b_adapt=2 / b_bias=0 / direct=3 / weightb=1 / open_gop=0 / weightp=2 / keyint=250 / keyint_min=23 / scenecut=40 / intra_refresh=0 / rc=crf / mbtree=0 / crf=18.0000 / qcomp=0.65 / qpmin=0 / qpmax=69 / qpstep=4 / ip_ratio=1.30 / pb_ratio=1.20 / aq=3:0.80
Язык : English
Default : Да
Forced : Нет

Аудио #1
Идентификатор : 2
Формат : AC-3
Формат/Информация : Audio Coding 3
Параметр Endianness формата : Big
Идентификатор кодека : A_AC3
Продолжительность : 1 ч. 2 м.
Вид битрейта : Постоянный
Битрейт : 384 Кбит/сек
Каналы : 6 каналов
Расположение каналов : Front: L C R, Side: L R, LFE
Частота : 48,0 КГц
Частота кадров : 31,250 кадров/сек (1536 spf)
Битовая глубина : 16 бит
Метод сжатия : С потерями
Размер потока : 173 Мбайт (3%)
Заголовок : TVShows
ServiceKind/String : Complete Main
Default : Нет
Forced : Нет

Аудио #2
Идентификатор : 3
Формат : E-AC-3
Формат/Информация : Enhanced Audio Coding 3
Параметр Endianness формата : Big
Идентификатор кодека : A_EAC3
Продолжительность : 1 ч. 2 м.
Вид битрейта : Постоянный
Битрейт : 640 Кбит/сек
Каналы : 6 каналов
Расположение каналов : Front: L C R, Side: L R, LFE
Частота : 48,0 КГц
Частота кадров : 187,500 кадров/сек (256 spf)
Метод сжатия : С потерями
Размер потока : 288 Мбайт (6%)
Заголовок : Original
Язык : English
ServiceKind/String : Complete Main
Default : Нет
Forced : Нет

Текст
Идентификатор : 4
Формат : UTF-8
Идентификатор кодека : S_TEXT/UTF8
Идентификатор кодека/Информация : UTF-8 Plain Text
Продолжительность : 1 ч. 2 м.
Битрейт : 53 бит/сек
ElementCount : 914
Размер потока : 24,4 Кбайт (0%)
Заголовок : English
Язык : English
Default : Нет
Forced : Нет
pb.wtf



Скачать Американские боги через торрент http://i3.imageban.ru/out/2017/05/02/a5b3c8259d51f59562717ce19aa1e351.png Скачать фильм Американские боги через торрент бесплантно в хорошем качестве Описание: Тень — человек с прошлым. Но теперь единственное, чего он хочет — это жить тихой и спокойной жизнью со своей женой в стороне от ... 10 10 2
Торрент: Зарегистрирован [2019-03-11 14:59] · скачан: 47 раз
Статус: √ проверено
Размер: 33.18 GB
Как cкачать? Как скачать Американские боги через торрент | qTorrent

% Раздел Тема Автор DL S | L
Зарубежные сериалы [ 29.13 GB ] Американские боги / American Gods / Сезон: 2 / Серии: 1-8 из 8 [2019 WEBRip 1080p] DVO [Кубик в Кубе] bober100 Скачать
1 | 0
Зарубежные сериалы [ 5.29 GB ] Американские боги / American Gods / Сезон: 2 / Серии: 1-8 из 8 [2019 WEB-DLRip] MVO [Alexfilm] bober100 Скачать
1 | 0
Зарубежные сериалы [ 5.24 GB ] Американские боги / American Gods / Сезон: 2 / Серии: 1-8 из 8 [2019 WEBRip] MVO [LostFilm] bober100 Скачать
2 | 0
Зарубежные сериалы [ 28.94 GB ] Американские боги / American Gods / Сезон: 2 / Серии: 1-8 из 8 [2019 WEB-DL 1080p] MVO [AlexFilm] bober100 Скачать
1 | 0
Зарубежные сериалы [ 29.72 GB ] Американские боги / American Gods / Сезон 2 / Серии 1-8 из 8 [2019 WEB-DL 1080p] killermax2013 Скачать
1 | 0
Зарубежные сериалы [ 7.16 GB ] Американские боги / American Gods / Сезон 2 / Серии 1-8 из 8 [2019 WEB-DLRip] [MVO] killermax2013 Скачать
1 | 0
Зарубежные сериалы [ 17.33 GB ] Американские боги / American Gods / Сезон: 2 / Серии: 1-8 из 8 [2019 WEB-DL 720p] 3x[MVO] killermax2013 Скачать
1 | 0

28-11-2019 20:33  

Отключить всю рекламу на сайте

    Дорогой пользователь! Огромная просьба, поблагодарите релизера, оцените раздачу и оставьте свои комментарий, если Вы скачали Американские боги через торрент бесплатно! Внесите свою лепту в развитие PiratBit!
    Комментировать посты могут только пользователи прошедшие не сложную регистрацию
    Показать сообщения:    

    Американские боги через торрент
    Скачать бесплатно Американские боги
    Американские боги скачать торрент
    Американские боги смотреть онлайн
    Cкачать фильм Американские боги бесплатно
    Американские боги скачать торрент в хорошем качестве
    Американские боги смотреть онлайн бесплатно в хорошем качестве


    Вы не можете начинать темы
    Вы не можете отвечать на сообщения
    Вы не можете редактировать свои сообщения
    Вы не можете удалять свои сообщения
    Вы не можете голосовать в опросах
    Вы не можете прикреплять файлы к сообщениям
    Вы можете скачивать файлы