2 сезон

iTunes

MVO

1

2 сезон

iTunes

iTunes

1 сезон

RePack

30

Новинка

ВАЖНО

ИГРА 18+

pack

RePack

MK11
pack

Легкие деньги

RePack

jed

RePack

fifa19

RePack

RDR2

RePack

NEED FOR SPEED™ PAYBACK

4 сезон

9 сезон

Бесстыжие 9 сезон

Все сериалы

все сериалы на PB.wtf

RePack

FAR CRY 5

Anonymous, добрый вечер, мы не успеваем собрать деньги на оплату серверов за декабрь и январь, помогите нам пожалуйста в это трудное время. В качестве благодарности мы отключим Вам всю рекламу на сайте (укажите свой ник в строку Ваше имя)!

×
  
Magnet ссылка

Путешествие к Центру Земли / Journey to the Center of the Earth (Эрик Бревиг) [2008 г., фантастика, боевик, триллер, приключения, семейный, BDRip 720p / 60 FPS, Дубляж Лицензия]от R.G. HD-Films pb.wtf

Путешествие к Центру Земли через торрент pb.wtf

Размер: 4.07 GB | Добавлен: 1 год 10 мес. назад | Торрент скачан:82 раза
Скачать  

11-03-2019 16:12 Путешествие к Центру Земли Скачать торрент  

Путешествие к Центру Земли / Journey to the Center of the Earth
Год выпуска: 2008
Страна: США
Жанр: фантастика, боевик, триллер, приключения, семейный
Продолжительность: 01:32:34
Перевод: Дубляж Лицензия

Режиссер: Эрик Бревиг

Бюджет: $60 000 000
Премьера в мире: 10 июля 2008



В ролях: Брендан Фрейзер, Джош Хатчерсон, Анита Брием, Сет Майерс, Жан Мишель Паре, Джейн Вилер, Фрэнк Фонтейн, Джанкарло Кальтабиано, Каньехтио Хорн, Гарт Гилкер.

Описание: Пытаясь узнать о судьбе исчезнувшего брата, учёный, его племянник и их проводница открывают фантастичный и опасный затерянный мир в Центре Земли.

Качество: BDRip 720p / 60 FPS
Формат: MKV
Видео кодек: H.264
Аудио кодек: AC3
Видео: x264, 1280 x 720 (16:9), 5788 kbps, 60,000 fps, ( 0.105bpp)
Аудио#1: AC-3, 48.0 KHz, 6 ch, 384 Kbps (Russian )
скриншот   скриншот   скриншот   скриншот   скриншот  
Автор рипа: slaventi-69
x264 [info]: profile High, level 4.1
x264 [info]: frame I:2722 Avg QP:14.40 size:147772
x264 [info]: frame P:83171 Avg QP:17.86 size: 32540
x264 [info]: frame B:247053 Avg QP:21.89 size: 4009
x264 [info]: consecutive B-frames: 2.6% 5.2% 11.0% 14.1% 67.1%


Общее
Уникальный идентификатор : 242629000160655657213668249119060589578 (0xB688A54B3193CBF298D49C1510E6FC0A)
Полное имя : D:\Journey.to.the.Center.of.the.Earth.(2008).BDRip.720p.(60 Fps).mkv
Формат : Matroska
Версия формата : Version 4 / Version 2
Размер файла : 4,07 Гбайт
Продолжительность : 1 ч. 32 м.
Общий поток : 6297 Кбит/сек
Название фильма : Путешествие к Центру Земли / Journey to the Center of the Earth (2008) BDRip 720p (60 Fps)
Дата кодирования : UTC 2019-03-11 15:26:00
Программа кодирования : mkvmerge v12.0.0 ('Trust / Lust') 64bit
Библиотека кодирования : libebml v1.3.4 + libmatroska v1.4.5
DURATION : 01:32:29.152000000
NUMBER_OF_FRAMES : 173411
NUMBER_OF_BYTES : 266359296
_STATISTICS_WRITING_APP : mkvmerge v12.0.0 ('Trust / Lust') 64bit
_STATISTICS_WRITING_DATE_UTC : 2019-03-11 15:26:00
_STATISTICS_TAGS : BPS DURATION NUMBER_OF_FRAMES NUMBER_OF_BYTES

Видео
Идентификатор : 1
Формат : AVC
Формат/Информация : Advanced Video Codec
Профиль формата : High@L4.1
Параметр CABAC формата : Да
Параметр ReFrames формата : 4 кадра
Идентификатор кодека : V_MPEG4/ISO/AVC
Продолжительность : 1 ч. 32 м.
Битрейт : 5788 Кбит/сек
Ширина : 1280 пикселей
Высота : 720 пикселей
Соотношение сторон : 16:9
Режим частоты кадров : Постоянный
Частота кадров : 60,000 кадров/сек
Цветовое пространство : YUV
Субдискретизация насыщенности : 4:2:0
Битовая глубина : 8 бит
Тип развёртки : Прогрессивная
Бит/(Пиксели*Кадры) : 0.105
Размер потока : 3,74 Гбайт (92%)
Заголовок : slaventi-69 ( R.G. HD-Films | 60 fps )
Библиотека кодирования : x264 core 130 r2273 b3065e6
Настройки программы : cabac=1 / ref=4 / deblock=1:0:0 / analyse=0x3:0x133 / me=umh / subme=9 / psy=1 / psy_rd=1.00:0.10 / mixed_ref=1 / me_range=24 / chroma_me=1 / trellis=2 / 8x8dct=1 / cqm=0 / deadzone=21,11 / fast_pskip=0 / chroma_qp_offset=-3 / threads=8 / lookahead_threads=4 / sliced_threads=0 / nr=0 / decimate=1 / interlaced=0 / bluray_compat=0 / constrained_intra=0 / bframes=4 / b_pyramid=2 / b_adapt=2 / b_bias=0 / direct=3 / weightb=1 / open_gop=0 / weightp=2 / keyint=250 / keyint_min=25 / scenecut=40 / intra_refresh=0 / rc_lookahead=50 / rc=crf / mbtree=1 / crf=16.0 / qcomp=0.60 / qpmin=0 / qpmax=69 / qpstep=4 / ip_ratio=1.40 / aq=1:1.00
Язык : English
Default : Да
Forced : Нет

Аудио
Идентификатор : 2
Формат : AC-3
Формат/Информация : Audio Coding 3
Расширение режима : CM (complete main)
Параметр Endianness формата : Big
Идентификатор кодека : A_AC3
Продолжительность : 1 ч. 32 м.
Вид битрейта : Постоянный
Битрейт : 384 Кбит/сек
Каналы : 6 каналов
Расположение каналов : Front: L C R, Side: L R, LFE
Частота : 48,0 КГц
Битовая глубина : 16 бит
Метод сжатия : С потерями
Размер потока : 254 Мбайт (6%)
Заголовок : Dub
Язык : Russian
Default : Да
Forced : Нет

pb.wtf



Скачать Путешествие к Центру Земли через торрент http://lostpic.net/images/6bf824e0107016a80b5a0ec5dce6bf91.png Скачать фильм Путешествие к Центру Земли через торрент бесплантно в хорошем качестве Описание: Пытаясь узнать о судьбе исчезнувшего брата, учёный, его племянник и их проводница открывают фантастичный и опасный затерянный мир ... 10 10 8
Info! Золотая раздача, скачанное не засчитывается.
Торрент: Зарегистрирован [2019-03-11 16:12] · скачан: 82 раз
Статус: √ проверено
Размер: 4.07 GB
Как cкачать? Как скачать Путешествие к Центру Земли через торрент | UTorrent

28-11-2019 20:33  

Отключить всю рекламу на сайте


12-03-2019 07:04 Путешествие к Центру Земли Скачать торрент  

Круто! Спасибо, забираю! А вторая часть будет?pb.wtf



13-03-2019 18:12 Путешествие к Центру Земли Скачать торрент  

михакруг писал(а):

Круто! Спасибо, забираю! А вторая часть будет?

Да, уже: Путешествие 2: Таинственный остров / Journey 2: The Mysterious Island ;spmode=fullpb.wtf



    Дорогой пользователь! Огромная просьба, поблагодарите релизера, оцените раздачу и оставьте свои комментарий, если Вы скачали Путешествие к Центру Земли через торрент бесплатно! Внесите свою лепту в развитие PiratBit!
    Комментировать посты могут только пользователи прошедшие не сложную регистрацию
    Показать сообщения:    

    Путешествие к Центру Земли через торрент
    Скачать бесплатно Путешествие к Центру Земли
    Путешествие к Центру Земли скачать торрент
    Путешествие к Центру Земли смотреть онлайн
    Cкачать фильм Путешествие к Центру Земли бесплатно
    Путешествие к Центру Земли скачать торрент в хорошем качестве
    Путешествие к Центру Земли смотреть онлайн бесплатно в хорошем качестве


    Вы не можете начинать темы
    Вы не можете отвечать на сообщения
    Вы не можете редактировать свои сообщения
    Вы не можете удалять свои сообщения
    Вы не можете голосовать в опросах
    Вы не можете прикреплять файлы к сообщениям
    Вы можете скачивать файлы