Доктор Стрэндж

Лицензия

Добыча

MVO

Дом дракона

1 сезон

Тор

Лицензия

Мэверик

Лицензия

Там, где раки поют

MVO

Властелин колец

1 сезон

Ultimate

pack

Рекомендуем

30

Repack

ВАЖНО

ВАЖНО

Ghostwire

RePack

jed

RePack

nioh2

RePack

RDR2

RePack

NEED FOR SPEED™ PAYBACK

RePack

скачать торрент

Кинопоиск HD

Острые козырьки 6 сезон

6 сезон

FAR CRY 6

RePack

скачать торрент

Лицензия

скачать торрент

MVO

1

1 сезон

скачать торрент

1 сезон

скачать торрент

Лицензия

  

Шифр / Сезон: 1 / Серии: 1-16 из 16 (Вера Сторожева) [2019, Детектив, исторический, HDTVRip]

Шифр через торрент pb.wtf

Размер: 10.8 GB | Добавлен: 3 года 6 мес. назад | Торрент скачан:240 раз
Смотреть онлайн | Скачать   

11-03-2019 18:11 Шифр Скачать торрент  

Шифр Год выпуска: 2019
Страна: Россия
Жанр: Детектив, исторический
Продолжительность: ~ 00:47:00 серия
Перевод: Не требуется
Субтитры: отсутствуют

Режиссер: Вера Сторожева



В ролях:

Марьяна Спивак, Елена Панова, Екатерина Вилкова, Яна Осипова, Сергей Пускепалис, Михаил Евланов, Олег Гаас, Дмитрий Мазуров, Виктор Конухин, Виталия Корниенко, Софья Хилькова, Максим Стоянов, Екатерина Лапига, Виктор Добронравов, Николай Качура, Алексей Колган, Нина Дворжецкая, Александра Урсуляк, Светлана Колпакова, Николай Токарев

Описание:

Действие разворачивается в Москве 1956 года и рассказывает историю четырёх женщин, которых связывает военное прошлое: работа в спецотделе ГРУ. Они сходятся вновь, чтобы вести расследования и помогать следственным органам в особо запутанных делах. Обладая феноменальными аналитическими способностями, Ирина, Анна, Софья и Катерина, рискуя собой, а также благополучием собственных семей, ловят преступников, которые угрожают жизни простых людей и всей стране в целом.

Качество: HDTVRip
Формат: AVI

Видео: XviD, ~ 1800 Кбит/с, 704x384
Аудио: AC3, 2 ch, 192 Кбит/с
скриншот   скриншот   скриншот   скриншот   скриншот   скриншот   скриншот  
скриншот  

Общее
Полное имя : D:Shifr.HDTVRip.GeneralFilm1.Shifr.HDTVRip.GeneralFilm.avi
Формат : AVI
Формат/Информация : Audio Video Interleave
Размер файла : 682 Мбайт
Продолжительность : 48 м. 3 с.
Общий поток : 1982 Кбит/сек

Видео
Идентификатор : 0
Формат : MPEG-4 Visual
Профиль формата : Advanced [email protected]
Параметр BVOP формата : 1
Параметр QPel формата : Нет
Параметр GMC формата : Без точки перехода
Параметр матрицы формата : Выборочная
Идентификатор кодека : XVID
Идентификатор кодека/Подсказка : XviD
Продолжительность : 48 м. 3 с.
Битрейт : 1779 Кбит/сек
Ширина : 704 пикселя
Высота : 384 пикселя
Соотношение сторон : 1,85:1
Частота кадров : 25,000 кадров/сек
Цветовое пространство : YUV
Субдискретизация насыщенности : 4:2:0
Битовая глубина : 8 бит
Тип развёртки : Прогрессивная
Метод сжатия : С потерями
Бит/(Пиксели*Кадры) : 0.263
Размер потока : 612 Мбайт (90%)
Библиотека кодирования : XviD 1.2.1 (UTC 2008-12-04)

Аудио
Идентификатор : 1
Формат : AC-3
Формат/Информация : Audio Coding 3
Расширение режима : CM (complete main)
Параметр Endianness формата : Big
Идентификатор кодека : 2000
Продолжительность : 48 м. 3 с.
Вид битрейта : Постоянный
Битрейт : 192 Кбит/сек
Каналы : 2 канала
Расположение каналов : Front: L R
Частота : 48,0 КГц
Частота кадров : 31,250 кадров/сек (1536 spf)
Битовая глубина : 16 бит
Метод сжатия : С потерями
Размер потока : 66,0 Мбайт (10%)
Выравнивание : Соединение по промежуткам
Продолжительность промежутка : 32 мс. (0,80 видеокадр)

Внимание! Раздача ведётся путём добавления новых серий; при каждом добавлении создётся новый торрент. Чтобы начать докачку новой серии, пользователям необходимо сделать следующее: (1) остановить скачивание, (2) удалить старый торрент у себя из клиента (старые серии удалять не надо), (3) скачать новый торрент и запустить его у себя в клиенте вместо старого, при этом указать клиенту путь в старую папку куда и должно происходить скачивание новых серий.
Ваш клиент при этом должен произвести хеширование (проверку) старой папки (если не производит сам - помогите ему сделать это), и будет докачивать только те серии которых у вас ещё нет. Старые серии при этом не удаляются, а продолжают раздаваться!
Eсли вы уже удалили старые серии, то предотвратить повторную закачку старых серий можно, отжав галочку в соответсвующих местах при запуске нового торрента.



Скачать Шифр через торрент http://img14.lostpic.net/2019/03/11/4cbd722033e366b41aebe9a22e89894e.jpg Скачать, смотреть онлайн Шифр бесплантно в хорошем качестве Описание: Действие разворачивается в Москве 1956 года и рассказывает историю четырёх женщин, которых связывает военное прошлое: работа в ... 9 10 10
Торрент: Зарегистрирован [2019-03-22 17:15] · скачан: 240 раз
Статус: √ проверено
Размер: 10.8 GB
Как cкачать? Как скачать Шифр через торрент | UTorrent

% Раздел Тема Автор DL S | L
Наши сериалы [ 5.25 GB ] Шифр / Сезон: 3 / Серии: 1-8 из 8 | | WEBRip-AVC bober100 Скачать
2 | 0
Наши сериалы [ 4.69 GB ] Шифр / Сезон: 2 / Серии: 1-8 из 8 | | SATRip Russian Mafia Скачать
1 | 0
Наши сериалы [ 10.97 GB ] Шифр / Сезон: 2 / Серии: 1-8 из 8 | | HDTVRip 720p bober100 Скачать
1 | 0
Наши сериалы [ 6.51 GB ] Шифр / Сезон: 2 / Серии: 1-8 из 8 | | HDTVRip-AVC bober100 Скачать
1 | 0
Наши сериалы [ 5.35 GB ] Шифр / Сезон: 2 / Серии: 1-8 из 8 | | HDTVRip bober100 Скачать
1 | 0
Наши сериалы [ 20.44 GB ] Шифр / Сезон: 2 / Серии: 1-8 из 8 | | HDTV 1080i bober100 Скачать
1 | 0
Наши сериалы [ 26.97 GB ] Шифр / Сезон: 1 / Серии: 1-16 из 16 | | 1080p bober100 Скачать
1 | 0



Последний раз редактировалось: bober100 (2019-03-22 17:15), всего редактировалось 5 раз(а)

28-11-2019 20:33  


Отключить вcю реклaмy на сайте, в т.ч. и в плеере онлайн просмотра!

11-03-2019 19:43 Шифр Скачать торрент  

на много интереснее было если эти дамы работали на ЦРУ,а так это очередная патриотЛАЖА.



12-03-2019 11:50 Шифр Скачать торрент  

dimabzz писал(а):

на много интереснее было если эти дамы работали на ЦРУ,а так это очередная патриотЛАЖА.

пжл сериал Родина Родина / Чужой среди своих / Homeland / Сезон: 7 / Серии: 1-12 из 12



16-03-2019 21:59 Шифр Скачать торрент  

Посмотрел 3 серии, пока интересно...



    Дорогой пользователь! Огромная просьба, поблагодарите релизера, оцените раздачу и оставьте свои комментарий, если Вы скачали Шифр через торрент бесплатно!!
    Комментировать посты могут только пользователи прошедшие не сложную регистрацию
    Показать сообщения:    


    Шифр через торрент
    Скачать бесплатно Шифр
    Шифр скачать торрент
    Шифр смотреть онлайн
    Cкачать фильм Шифр бесплатно
    Шифр скачать торрент в хорошем качестве
    Шифр смотреть онлайн бесплатно в хорошем качестве
    Вы не можете начинать темы
    Вы не можете отвечать на сообщения
    Вы не можете редактировать свои сообщения
    Вы не можете удалять свои сообщения
    Вы не можете голосовать в опросах
    Вы не можете прикреплять файлы к сообщениям
    Вы можете скачивать файлы