новый адрес
Ссылка на приватное зеркало всего за 1$. Внимание количество ограничено!!!

iTunes

1+1

iTunes

мы

WEB-DL

1

iTunes

Чернобыль

iTunes

Ральф против интернета

Лицензия

ПШазам

Лицензия

Оно 2

Лицензия

30
pack

Вам бонус

ВАЖНО

!!Акция!!

Alien_RageХит недели

RePack

Resident Evil 21

ИГРА 18+

pack

RePack

jed

!!Акция!!

Alien_Rage

RePack

fifa19

RePack

Assassins Creed: Odyssey

RePack

NEED FOR SPEED™ PAYBACK

3 сезон

9 сезон

Бесстыжие 9 сезон

Все сериалы

все сериалы на PB.wtf

RePack

FAR CRY 5
Ребята, катастрофически не хватает 1900р. для оплаты серверов за Октябрь (всвязи с блокировками трафик упал в 3 раза), 1-2р., выручайте.
  

Тачки 3 в 3D / Cars 3 in 3D (Брайан Фи) [2017 г., Мультфильм, Комедия, Приключения, Семейный, Спорт, BDRip 1080p, Дубляж BD CEE] Анаглиф (Дюбуа) pb.wtf

Тачки 3 в 3D через торрент pb.wtf

Размер: 5.81 GB | Добавлен: 8 мес. назад | Торрент скачан:7 раз
Скачать  

11-03-2019 18:24 Тачки 3 в 3D Скачать торрент  

Тачки 3 в 3D / Cars 3 in 3D
Год выпуска: 2017
Страна: США
Жанр: Мультфильм, Комедия, Приключения, Семейный, Спорт
Продолжительность: 01:42:25
Перевод: Дубляж BD CEE
Субтитры: Русские, украинские, английские

Режиссер: Брайан Фи

Бюджет: $175 000 000
Премьера в мире: 10 июня 2017 (15 июня 2017)



Роли озвучивали: Оуэн Уилсон, Кристела Алонзо, Крис Купер, Нэйтан Филлион, Ларри-кабельщик, Арми Хаммер, Рэй Мальоцци, Тони Шэлуб, Бонни Хант, Лиа ДеЛария

Описание: Встречайте самого знаменитого гонщика всех времен, легенду гоночного трека Молнию Маккуина!

Герой все еще продолжает показывать лучшие результаты на всех турнирах, однако победы даются ему не так легко, а конкуренция становится все жестче. Молнию Маккуина ждут захватывающие приключения, где он встретит новых друзей, а также поймет, что не только скорость и мощность мотора делают гонщика чемпионом.

Доп. информация: Формат 3D: Анаглиф (Дюбуа)



Качество: BDRip 1080p
Формат: MKV
Видео кодек: H.264
Аудио кодек: AC3
Видео: x264, 1920x1080 (16:9), 6038 kbps, 23,976 fps ( 0.121bpp)
Аудио#1: Русский / AC3 / 48 KHz / 5.1 ch / 640 Kbps (Дубляж - BD CEE
Аудио#2: Украинский / AC3 / 48 KHz / 5.1 ch / 640 Kbps (Дубляж) (спасибо Hurtom!)
Аудио#3: Английский / AC3 / 48 KHz / 5.1 ch / 640 Kbps (Original - BD 3D)


скриншот   скриншот   скриншот   скриншот   скриншот  
x264 [info]: profile High, level 4.1
x264 [info]: frame I:1534 Avg QP:12.55 size:224689
x264 [info]: frame P:42113 Avg QP:15.77 size: 58088
x264 [info]: frame B:103688 Avg QP:18.42 size: 18986
x264 [info]: consecutive B-frames: 5.0% 5.1% 15.4% 41.0% 33.5%


Общее
Уникальный идентификатор : 220488396893778568223324258543454828462 (0xA5E08545D466D72CB1F516BDB71EB7AE)
Полное имя : D:\Cars3(2017)3D-(Anaglyph_Dubois).mkv
Формат : Matroska
Версия формата : Version 4 / Version 2
Размер файла : 5,81 Гбайт
Продолжительность : 1 ч. 42 м.
Общий поток : 8119 Кбит/сек
Название фильма : Тачки 3 / Cars 3 (2017) in 3D (Anaglyph_Dubois)
Дата кодирования : UTC 2018-09-15 08:54:42
Программа кодирования : mkvmerge v12.0.0 ('Trust / Lust') 64bit
Библиотека кодирования : libebml v1.3.4 + libmatroska v1.4.5
DURATION : 01:40:49.347000000
NUMBER_OF_FRAMES : 1929
NUMBER_OF_BYTES : 77733
_STATISTICS_WRITING_APP : mkvmerge v12.0.0 ('Trust / Lust') 64bit
_STATISTICS_WRITING_DATE_UTC : 2018-09-15 08:54:42
_STATISTICS_TAGS : BPS DURATION NUMBER_OF_FRAMES NUMBER_OF_BYTES

Видео
Идентификатор : 1
Формат : AVC
Формат/Информация : Advanced Video Codec
Профиль формата : High@L4.1
Параметр CABAC формата : Да
Параметр ReFrames формата : 4 кадра
Идентификатор кодека : V_MPEG4/ISO/AVC
Продолжительность : 1 ч. 42 м.
Битрейт : 6038 Кбит/сек
Ширина : 1920 пикселей
Высота : 1080 пикселей
Соотношение сторон : 16:9
Режим частоты кадров : Постоянный
Частота кадров : 23,976 кадра/сек
Цветовое пространство : YUV
Субдискретизация насыщенности : 4:2:0
Битовая глубина : 8 бит
Тип развёртки : Прогрессивная
Бит/(Пиксели*Кадры) : 0.121
Размер потока : 4,32 Гбайт (74%)
Заголовок : slaventi-69 ( R.G. HD-Films ) 3Д (Anaglyph_Dubois)
Библиотека кодирования : x264 core 130 r2273 b3065e6
Настройки программы : cabac=1 / ref=4 / deblock=1:0:0 / analyse=0x3:0x113 / me=umh / subme=9 / psy=1 / psy_rd=1.00:0.00 / mixed_ref=1 / me_range=24 / chroma_me=1 / trellis=2 / 8x8dct=1 / cqm=0 / deadzone=21,11 / fast_pskip=1 / chroma_qp_offset=-2 / threads=8 / lookahead_threads=4 / sliced_threads=0 / nr=0 / decimate=1 / interlaced=0 / bluray_compat=0 / constrained_intra=0 / bframes=4 / b_pyramid=2 / b_adapt=2 / b_bias=0 / direct=2 / weightb=1 / open_gop=0 / weightp=2 / keyint=250 / keyint_min=23 / scenecut=40 / intra_refresh=0 / rc_lookahead=40 / rc=crf / mbtree=1 / crf=18.5 / qcomp=0.60 / qpmin=0 / qpmax=69 / qpstep=4 / ip_ratio=1.40 / aq=1:1.00
Язык : English
Default : Да
Forced : Нет
DURATION : 01:42:25.093000000
NUMBER_OF_FRAMES : 147335
NUMBER_OF_BYTES : 4759556701
_STATISTICS_WRITING_APP : mkvmerge v12.0.0 ('Trust / Lust') 64bit
_STATISTICS_WRITING_DATE_UTC : 2018-09-15 08:54:42
_STATISTICS_TAGS : BPS DURATION NUMBER_OF_FRAMES NUMBER_OF_BYTES

Аудио #1
Идентификатор : 2
Формат : AC-3
Формат/Информация : Audio Coding 3
Расширение режима : CM (complete main)
Параметр Endianness формата : Big
Идентификатор кодека : A_AC3
Продолжительность : 1 ч. 42 м.
Вид битрейта : Постоянный
Битрейт : 640 Кбит/сек
Каналы : 6 каналов
Расположение каналов : Front: L C R, Side: L R, LFE
Частота : 48,0 КГц
Битовая глубина : 16 бит
Метод сжатия : С потерями
Размер потока : 469 Мбайт (8%)
Заголовок : Дубляж - BD CEE
Язык : Russian
Default : Да
Forced : Нет

Аудио #2
Идентификатор : 3
Формат : AC-3
Формат/Информация : Audio Coding 3
Расширение режима : CM (complete main)
Параметр Endianness формата : Big
Идентификатор кодека : A_AC3
Продолжительность : 1 ч. 42 м.
Вид битрейта : Постоянный
Битрейт : 640 Кбит/сек
Каналы : 6 каналов
Расположение каналов : Front: L C R, Side: L R, LFE
Частота : 48,0 КГц
Битовая глубина : 16 бит
Метод сжатия : С потерями
Размер потока : 469 Мбайт (8%)
Заголовок : Дубляж
Язык : Ukrainian
Default : Нет
Forced : Нет

Аудио #3
Идентификатор : 4
Формат : AC-3
Формат/Информация : Audio Coding 3
Расширение режима : CM (complete main)
Параметр Endianness формата : Big
Идентификатор кодека : A_AC3
Продолжительность : 1 ч. 42 м.
Вид битрейта : Постоянный
Битрейт : 640 Кбит/сек
Каналы : 6 каналов
Расположение каналов : Front: L C R, Side: L R, LFE
Частота : 48,0 КГц
Битовая глубина : 16 бит
Метод сжатия : С потерями
Размер потока : 469 Мбайт (8%)
Заголовок : Original
Язык : English
Default : Нет
Forced : Нет

Текст #1
Идентификатор : 5
Формат : UTF-8
Идентификатор кодека : S_TEXT/UTF8
Идентификатор кодека/Информация : UTF-8 Plain Text
Заголовок : Форсированные
Язык : Russian
Default : Да
Forced : Нет

Текст #2
Идентификатор : 6
Формат : UTF-8
Идентификатор кодека : S_TEXT/UTF8
Идентификатор кодека/Информация : UTF-8 Plain Text
Заголовок : Полные
Язык : Russian
Default : Нет
Forced : Нет

Текст #3
Идентификатор : 7
Формат : UTF-8
Идентификатор кодека : S_TEXT/UTF8
Идентификатор кодека/Информация : UTF-8 Plain Text
Заголовок : Форсированные
Язык : Ukrainian
Default : Нет
Forced : Нет

Текст #4
Идентификатор : 8
Формат : UTF-8
Идентификатор кодека : S_TEXT/UTF8
Идентификатор кодека/Информация : UTF-8 Plain Text
Заголовок : Full
Язык : English
Default : Нет
Forced : Нет

Текст #5
Идентификатор : 9
Формат : UTF-8
Идентификатор кодека : S_TEXT/UTF8
Идентификатор кодека/Информация : UTF-8 Plain Text
Заголовок : SDH
Язык : English
Default : Нет
Forced : Нет

Меню
00:00:00.000 : : 1. Champ McQueen
00:04:57.254 : : 2. Storm Front
00:10:54.986 : : 3. Crash
00:13:59.421 : : 4. Wake-up Call
00:18:15.344 : : 5. Phone Call
00:21:07.641 : : 6. Modern Training
00:34:08.880 : : 7. Deal
00:37:52.103 : : 8. Beach
00:42:44.811 : : 9. Crazy Eight
00:49:44.398 : : 10. Cruz's Dream
00:53:57.733 : : 11. Facetime
00:58:17.702 : : 12. Olive Branch
00:59:27.521 : : 13. Smokey
01:02:15.940 : : 14. Hud's Win
01:06:35.532 : : 15. It's Over
01:08:33.109 : : 16. Old School Training
01:15:48.126 : : 17. Florida Arrival
01:20:57.851 : : 18. Pit Stop
01:29:42.417 : : 19. Victory Lane
01:32:17.030 : : 20. Epilogue
01:34:00.091 : : 21. End Credits

pb.wtf



Скачать Тачки 3 в 3D через торрент http://i98.fastpic.ru/big/2017/1108/2f/0f76469dbef540b65af471fbbbd96e2f.png Скачать фильм Тачки 3 в 3D через торрент бесплантно в хорошем качестве Описание: Встречайте самого знаменитого гонщика всех времен, легенду гоночного трека Молнию Маккуина!Герой все еще продолжает показывать ... 5 10 1
Торрент: Зарегистрирован [2019-03-11 18:24] · скачан: 7 раз
Статус: √ проверено
Размер: 5.81 GB
Как cкачать? Как скачать Тачки 3 в 3D через торрент | qTorrent

28-11-2019 20:33  

Отключить всю рекламу на сайте

    Дорогой пользователь! Огромная просьба, поблагодарите релизера, оцените раздачу и оставьте свои комментарий, если Вы скачали Тачки 3 в 3D через торрент бесплатно! Внесите свою лепту в развитие PiratBit!
    Комментировать посты могут только пользователи прошедшие не сложную регистрацию
    Показать сообщения:    

    Тачки 3 в 3D через торрент
    Скачать бесплатно Тачки 3 в 3D
    Тачки 3 в 3D скачать торрент
    Тачки 3 в 3D смотреть онлайн
    Cкачать фильм Тачки 3 в 3D бесплатно
    Тачки 3 в 3D скачать торрент в хорошем качестве
    Тачки 3 в 3D смотреть онлайн бесплатно в хорошем качестве


    Вы не можете начинать темы
    Вы не можете отвечать на сообщения
    Вы не можете редактировать свои сообщения
    Вы не можете удалять свои сообщения
    Вы не можете голосовать в опросах
    Вы не можете прикреплять файлы к сообщениям
    Вы можете скачивать файлы