Ссылка на приватное зеркало нашего сайта всего за 1$. Внимание количество ограничено!!!

2 сезон

iTunes

1 сезон

1

iTunes

iTunes

iTunes

1 сезон

RePack

30

ИГРА 18+

pack

ВАЖНО

!!Акция!!

Alien_RageХит недели

RePack

MK11
pack

Забери бонус

RePack

jed

!!Акция!!

Alien_Rage

RePack

fifa19

RePack

Assassins Creed: Odyssey

RePack

NEED FOR SPEED™ PAYBACK

4 сезон

9 сезон

Бесстыжие 9 сезон

Все сериалы

все сериалы на PB.wtf

RePack

FAR CRY 5
  

Две девицы на мели / Сезон: 1 / Серии: 1-20 из 20 (Константин Смирнов) [2019, Комедия, ситком, юмор, WEB-DL 720p] pb.wtf

Две девицы на мели через торрент pb.wtf

Размер: 10.45 GB | Добавлен: 1 год 6 мес. назад | Торрент скачан:97 раз
Скачать  

12-03-2019 00:41 Две девицы на мели Скачать торрент  

Две девицы на мели Год выпуска: 2019
Страна: Россия
Жанр: Комедия, ситком, юмор
Продолжительность: ~ 00:25:00 (Серия)
Субтитры: отсутствуют

Режиссер: Константин Смирнов



В ролях:

Ольга Картункова, Алевтина Тукан, Владимир Сычев, Арман Навасардян, Наталья Бочкарева, Виктор Бычков, Никита Дювбанов, Гоша Куценко

Описание:

Казалось бы, что общего между провинциалкой Олей и дочерью миллиардера Марго? Они обе хотят заработать много денег! Оля – приезжая простушка, которая едва сводит концы с концами. Марго – девушка из высшего общества, внезапно лишившаяся своего статуса и состояния. По иронии судьбы она вынуждена устроиться официанткой в кафе, где работает Оля. Вместе девушки начинают подумывать о своем прибыльном бизнесе. Тем более, что почти всё для этого у них есть. Всё, кроме денег. Но на одни чаевые дело не откроешь…

Качество: WEB-DL 720p
Формат: MKV

Видео: MPEG4 AVC Video, H264, 16:9, 1280x720, 25 fps, ~3000 kbps, 0.130 bit/pixel
Аудио: AC3, 48.0 kHz, 2/0 (L,R) ch, 192 kbps
скриншот  скриншот  скриншот  

General
Unique ID : 224310971949023112967069310778273113752 (0xA8C0B8C61F95F257BE5603B60DCF2698)
Complete name : D:\Две девицы на мели.2019.WEB-DL 720p\Две девицы на мели.s01e01.2019.WEB-DL 720p.mkv
Format : Matroska
Format version : Version 4 / Version 2
File size : 543 MiB
Duration : 23 min 52 s
Overall bit rate : 3 183 kb/s
Encoded date : UTC 2019-03-11 20:54:42
Writing application : mkvmerge v9.6.0 ('Slave To Your Mind') 64bit
Writing library : libebml v1.3.4 + libmatroska v1.4.5

Video
ID : 1
Format : AVC
Format/Info : Advanced Video Codec
Format profile : High@L3.1
Format settings : CABAC / 1 Ref Frames
Format settings, CABAC : Yes
Format settings, ReFrames : 1 frame
Format settings, GOP : M=1, N=12
Codec ID : V_MPEG4/ISO/AVC
Duration : 23 min 52 s
Bit rate : 2 989 kb/s
Width : 1 280 pixels
Height : 720 pixels
Display aspect ratio : 16:9
Frame rate mode : Constant
Frame rate : 25.000 FPS
Standard : Component
Color space : YUV
Chroma subsampling : 4:2:0
Bit depth : 8 bits
Scan type : Progressive
Bits/(Pixel*Frame) : 0.130
Stream size : 510 MiB (94%)
Default : Yes
Forced : No
Color range : Limited

Audio
ID : 2
Format : AC-3
Format/Info : Audio Coding 3
Codec ID : A_AC3
Duration : 23 min 52 s
Bit rate mode : Constant
Bit rate : 192 kb/s
Channel(s) : 2 channels
Channel positions : Front: L R
Sampling rate : 44.1 kHz
Frame rate : 28.711 FPS (1536 SPF)
Bit depth : 16 bits
Compression mode : Lossy
Stream size : 32.8 MiB (6%)
Service kind : Complete Main
Default : Yes
Forced : No

Внимание! Раздача ведётся путём добавления новых серий; при каждом добавлении создётся новый торрент. Чтобы начать докачку новой серии, пользователям необходимо сделать следующее: (1) остановить скачивание, (2) удалить старый торрент у себя из клиента (старые серии удалять не надо), (3) скачать новый торрент и запустить его у себя в клиенте вместо старого, при этом указать клиенту путь в старую папку куда и должно происходить скачивание новых серий.
Ваш клиент при этом должен произвести хеширование (проверку) старой папки (если не производит сам - помогите ему сделать это), и будет докачивать только те серии которых у вас ещё нет. Старые серии при этом не удаляются, а продолжают раздаваться!
Eсли вы уже удалили старые серии, то предотвратить повторную закачку старых серий можно, отжав галочку в соответсвующих местах при запуске нового торрента.
pb.wtf



Скачать Две девицы на мели через торрент https://b.radikal.ru/b43/1903/15/1ead4dba4c77.jpg Скачать фильм Две девицы на мели через торрент бесплантно в хорошем качестве Описание:Казалось бы, что общего между провинциалкой Олей и дочерью миллиардера Марго? Они обе хотят заработать много денег! Оля – приезжая ... 9.6 10 14
Торрент: Зарегистрирован [2019-04-04 11:47] · скачан: 97 раз
Статус: √ проверено
Размер: 10.45 GB
Как cкачать? Как скачать Две девицы на мели через торрент | qTorrent

% Раздел Тема Автор DL S | L
Наши сериалы [ 5.86 GB ] Две девицы на мели / Сезон: 1 / Серии: 1-20 из 20 [2019 ситком юмор WEBRip-AVC] bober100 Скачать
1 | 0
Наши сериалы [ 6.84 GB ] Две девицы на мели / Сезон: 1 / Серии: 1-20 из 20 [2019 ситком юмор SATRip] bober100 Скачать
1 | 0
Наши сериалы [ 5.89 GB ] Две девицы на мели / Сезон: 1 / Серии: 1-20 из 20 [2019 ситком юмор WEB-DLRip] bober100 Скачать
1 | 0
Зарубежные сериалы [ 5.84 GB ] Две девицы на мели / 2 Broke Girls / Сезон: 2 / Серия: 1-24 из 24 [2012 - 2013 WEB-DLRip ] [Paramount Comedy] кэп Скачать
1 | 0
Зарубежные сериалы [ 5.87 GB ] Две девицы на мели / 2 Broke Girls / Сезон: 1 /Серии 1-24 из 24 [2012 HDTVRip] / DUB wekotila Скачать
1 | 0

28-11-2019 20:33  

Отключить всю рекламу на сайте

    Дорогой пользователь! Огромная просьба, поблагодарите релизера, оцените раздачу и оставьте свои комментарий, если Вы скачали Две девицы на мели через торрент бесплатно! Внесите свою лепту в развитие PiratBit!
    Комментировать посты могут только пользователи прошедшие не сложную регистрацию
    Показать сообщения:    

    Две девицы на мели через торрент
    Скачать бесплатно Две девицы на мели
    Две девицы на мели скачать торрент
    Две девицы на мели смотреть онлайн
    Cкачать фильм Две девицы на мели бесплатно
    Две девицы на мели скачать торрент в хорошем качестве
    Две девицы на мели смотреть онлайн бесплатно в хорошем качестве


    Вы не можете начинать темы
    Вы не можете отвечать на сообщения
    Вы не можете редактировать свои сообщения
    Вы не можете удалять свои сообщения
    Вы не можете голосовать в опросах
    Вы не можете прикреплять файлы к сообщениям
    Вы можете скачивать файлы