Достать ножи: Стеклянная луковица

MVO

Добыча

Дубляж

Уэнсдэй

1 сезон

Тор

Дубляж

13 клиническая

1 сезон

Жестокая ночь

MVO

Одни из нас

1 сезон

Deluxe

pack

Рекомендуем

30

Пиратка

ВАЖНО

ВАЖНО

Ghostwire

Пиратка

jed

RePack

nioh2

RePack

RDR2

RePack

NEED FOR SPEED™ PAYBACK

RePack

скачать торрент

Кинопоиск HD

Острые козырьки 6 сезон

6 сезон

FAR CRY 6

RePack

скачать торрент

Лицензия

скачать торрент

MVO

1

1 сезон

скачать торрент

1 сезон

скачать торрент

Лицензия

  

Фантастические твари: Преступления Грин-де-Вальда в 3Д / Fantastic Beasts: The Crimes of Grindelwald 3D (Дэвид Йейтс) [2018, фэнтези, приключения, семейный, BDRip 1080p] Дубляж (rus, ukr) [Лицензия] | Half OverUnder / Вертикальная анаморфная стереопара

Фантастические твари: Преступления Грин-де-Вальда в 3Д через торрент pb.wtf

Раздают: 1 [ 0 KB/s ]
Размер: 11.48 GB | Добавлен: 3 года 10 мес. назад | Торрент скачан:414 раз
Смотреть онлайн | Скачать | Поддержите нас   

12-03-2019 12:03 Фантастические твари: Преступления Грин-де-Вальда в 3Д Скачать торрент  

Фантастические твари: Преступления Грин-де-Вальда в 3Д / Fantastic Beasts: The Crimes of Grindelwald 3D««Кто сможет изменить будущее?»»

Год выпуска: 2018
Страна: Великобритания, США
Жанр: фэнтези, приключения, семейный
Продолжительность: 02:13:49
Перевод: Дублированный | Лицензия BD 3D Eur
Субтитры:
Вшитые (softsub): Русские (форсированные, полные), украинские (форсированные), английские (полные, SDH)
Внешние (UTF-8): Русские (Форсированные, полные), Украинские (Форсированные)
Режиссер: Дэвид Йейтс
В ролях:

Эдди Редмэйн (Newt Scamander), Джонни Депп (Grindelwald), Кэтрин Уотерстон (Tina Goldstein), Элисон Судол (Queenie Goldstein), Дэн Фоглер (Jacob Kowalski), Джуд Лоу (Albus Dumbledore), Эзра Миллер (Credence Barebone), Зои Кравиц (Leta Lestrange), Каллум Тернер (Theseus Scamander), Клаудия Ким (Nagini), Кевин Гатри (Abernathy), Кармен Эджого (Seraphina Picquery)
Описание:
Могущественный тёмный волшебник Геллерт Грин-де-Вальд пойман в Штатах, но не собирается молча сидеть в темнице и устраивает грандиозный побег. Теперь ничто не помешает ему добиться своей цели - установить превосходство волшебников над всеми немагическими существами на планете. Чтобы сорвать планы Грин-де-Вальда, Альбус Дамблдор обращается к своему бывшему студенту Ньюту Саламандеру, который соглашается помочь, не подозревая, какая опасность ему грозит. В раскалывающемся на части волшебном мире любовь и верность проверяются на прочность, а конфликт разделяет даже настоящих друзей и членов семей.
Рейтинг:

MPAA: PG-13 - Детям до 13 лет просмотр не желателен
Качество: BDRip 1080p (by Ash61)
Формат: MKV
Формат 3D: Half OverUnder / Вертикальная анаморфная стереопара
Видео: MPEG-4 AVC, 11000 Кбит/с, 1920х1080, 23.976 кадр/с
Аудио #01: Русский - 48 kHz, AC3, 5.1, 448 Kbps - Дублированный (лицензия BD 3D Eur)
Аудио #02: Украинский - 48 kHz, AC3, 2.0, 192 Kbps - Дублированный (iTunes)
Аудио #03: :f_56: Английский - 48 kHz, AC3, 5.1, 640 Kbps - Оригинал (BD 3D Eur)
Навигация по главам: Есть
General
Unique ID : 247773176116495992539105120080419688422 (0xBA6760C0030C5CA4A4A1CAE986B90FE6)
Complete name : J:\FantasticBeasts2(2018)3D-halfOU(Ash61)\FantasticBeasts2(2018)3D-halfOU(Ash61).mkv
Format : Matroska
Format version : Version 2
File size : 11.5 GiB
Duration : 2h 13mn
Overall bit rate : 12.3 Mbps
Movie name : Фантастические твари: Преступления Грин-де-Вальда / Fantastic Beasts: The Crimes of Grindelwald (2018) in 3D
Encoded date : UTC 2019-03-12 09:50:20
Writing application : mkvmerge v5.8.0 ('No Sleep / Pillow') built on Sep 2 2012 15:37:04
Writing library : libebml v1.2.3 + libmatroska v1.3.0

Video
ID : 1
Format : AVC
Format/Info : Advanced Video Codec
Format profile : [email protected]
Format settings, CABAC : Yes
Format settings, ReFrames : 4 frames
Codec ID : V_MPEG4/ISO/AVC
Duration : 2h 13mn
Bit rate : 11.0 Mbps
Width : 1 920 pixels
Height : 1 080 pixels
Display aspect ratio : 16:9
Frame rate mode : Constant
Frame rate : 23.976 (24000/1001) fps
Color space : YUV
Chroma subsampling : 4:2:0
Bit depth : 8 bits
Scan type : Progressive
Bits/(Pixel*Frame) : 0.221
Stream size : 10.1 GiB (88%)
Title : BDRip by Ash61
Writing library : x264 core 146 r2538 121396c
Encoding settings : cabac=1 / ref=4 / deblock=1:-3:-3 / analyse=0x3:0x113 / me=umh / subme=10 / psy=1 / psy_rd=1.00:0.00 / mixed_ref=1 / me_range=32 / chroma_me=1 / trellis=2 / 8x8dct=1 / cqm=0 / deadzone=21,11 / fast_pskip=0 / chroma_qp_offset=-2 / threads=12 / lookahead_threads=3 / sliced_threads=0 / nr=0 / decimate=0 / interlaced=0 / bluray_compat=0 / constrained_intra=0 / bframes=10 / b_pyramid=2 / b_adapt=2 / b_bias=0 / direct=3 / weightb=1 / open_gop=0 / weightp=2 / keyint=250 / keyint_min=23 / scenecut=40 / intra_refresh=0 / rc_lookahead=60 / rc=2pass / mbtree=0 / bitrate=11000 / ratetol=1.0 / qcomp=0.70 / qpmin=0 / qpmax=69 / qpstep=4 / cplxblur=20.0 / qblur=0.5 / vbv_maxrate=40000 / vbv_bufsize=30000 / nal_hrd=none / filler=0 / frame-packing=4 / ip_ratio=1.40 / pb_ratio=1.30 / aq=1:0.70
Language : English
Default : Yes
Forced : No

Audio #1
ID : 2
Format : AC-3
Format/Info : Audio Coding 3
Mode extension : CM (complete main)
Format settings, Endianness : Big
Codec ID : A_AC3
Duration : 2h 13mn
Bit rate mode : Constant
Bit rate : 448 Kbps
Channel(s) : 6 channels
Channel positions : Front: L C R, Side: L R, LFE
Sampling rate : 48.0 KHz
Frame rate : 31.250 fps (1536 spf)
Compression mode : Lossy
Stream size : 429 MiB (4%)
Title : Дубляж - BD 3D Eur
Language : Russian
Default : Yes
Forced : No

Audio #2
ID : 3
Format : AC-3
Format/Info : Audio Coding 3
Mode extension : CM (complete main)
Format settings, Endianness : Big
Codec ID : A_AC3
Duration : 2h 13mn
Bit rate mode : Constant
Bit rate : 192 Kbps
Channel(s) : 2 channels
Channel positions : Front: L R
Sampling rate : 48.0 KHz
Frame rate : 31.250 fps (1536 spf)
Compression mode : Lossy
Stream size : 184 MiB (2%)
Title : Дубляж - iTunes
Language : Ukrainian
Default : No
Forced : No

Audio #3
ID : 4
Format : AC-3
Format/Info : Audio Coding 3
Mode extension : CM (complete main)
Format settings, Endianness : Big
Codec ID : A_AC3
Duration : 2h 13mn
Bit rate mode : Constant
Bit rate : 640 Kbps
Channel(s) : 6 channels
Channel positions : Front: L C R, Side: L R, LFE
Sampling rate : 48.0 KHz
Frame rate : 31.250 fps (1536 spf)
Compression mode : Lossy
Stream size : 613 MiB (5%)
Title : Original - BD 3D Eur
Language : English
Default : No
Forced : No

Text #1
ID : 5
Format : UTF-8
Codec ID : S_TEXT/UTF8
Codec ID/Info : UTF-8 Plain Text
Title : Форсированные
Language : Russian
Default : Yes
Forced : No

Text #2
ID : 6
Format : UTF-8
Codec ID : S_TEXT/UTF8
Codec ID/Info : UTF-8 Plain Text
Title : Полные
Language : Russian
Default : No
Forced : No

Text #3
ID : 7
Format : UTF-8
Codec ID : S_TEXT/UTF8
Codec ID/Info : UTF-8 Plain Text
Title : Форсированные
Language : Ukrainian
Default : No
Forced : No

Text #4
ID : 8
Format : UTF-8
Codec ID : S_TEXT/UTF8
Codec ID/Info : UTF-8 Plain Text
Title : Full
Language : English
Default : No
Forced : No

Text #5
ID : 9
Format : UTF-8
Codec ID : S_TEXT/UTF8
Codec ID/Info : UTF-8 Plain Text
Title : SDH
Language : English
Default : No
Forced : No

Menu
00:00:00.000 : :1
00:07:15.310 : :2
00:21:39.381 : :3
00:32:56.850 : :4
00:41:41.124 : :5
00:50:26.190 : :6
00:58:21.540 : :7
01:12:02.860 : :8
01:20:23.610 : :9
01:34:50.059 : :10
01:43:08.557 : :11
01:51:42.237 : :12
02:00:31.641 : :13



Скачать Фантастические твари: Преступления Грин-де-Вальда в 3Д через торрент https://a.radikal.ru/a04/1903/8d/c6bde594a35c.jpg Скачать, смотреть онлайн Фантастические твари: Преступления Грин-де-Вальда в 3Д бесплантно в хорошем качестве Описание: Могущественный тёмный волшебник Геллерт Грин-де-Вальд пойман в Штатах, но не собирается молча сидеть в темнице и устраивает ... 9.9 10 7
Торрент: Зарегистрирован [2019-03-12 12:03] · скачан: 414 раз
Статус: √ проверено
Размер: 11.48 GB
Как cкачать? Как скачать Фантастические твари: Преступления Грин-де-Вальда в 3Д через торрент | UTorrent

28-11-2019 20:33  


Отключить вcю реклaмy на сайте, в т.ч. и в плеере онлайн просмотра!

    Дорогой пользователь! Огромная просьба, поблагодарите релизера, оцените раздачу и оставьте свои комментарий, если Вы скачали Фантастические твари: Преступления Грин-де-Вальда в 3Д через торрент бесплатно!!
    Комментировать посты могут только пользователи прошедшие не сложную регистрацию
    Показать сообщения:    


    Фантастические твари: Преступления Грин-де-Вальда в 3Д через торрент
    Скачать бесплатно Фантастические твари: Преступления Грин-де-Вальда в 3Д
    Фантастические твари: Преступления Грин-де-Вальда в 3Д скачать торрент
    Фантастические твари: Преступления Грин-де-Вальда в 3Д смотреть онлайн
    Cкачать фильм Фантастические твари: Преступления Грин-де-Вальда в 3Д бесплатно
    Фантастические твари: Преступления Грин-де-Вальда в 3Д скачать торрент в хорошем качестве
    Фантастические твари: Преступления Грин-де-Вальда в 3Д смотреть онлайн бесплатно в хорошем качестве
    Вы не можете начинать темы
    Вы не можете отвечать на сообщения
    Вы не можете редактировать свои сообщения
    Вы не можете удалять свои сообщения
    Вы не можете голосовать в опросах
    Вы не можете прикреплять файлы к сообщениям
    Вы можете скачивать файлы
    Фантастические твари: Преступления Грин-де-Вальда в 3Д / Fantastic Beasts: The Crimes of Grindelwald 3D [2018, фэнтези, приключения, семейный, BDRip 1080p] Дубляж [Лицензия] | Half OverUnder / Вертикальная анаморфная стереопара смотреть онлайн, скачать торрент picoco.icu