2 сезон

iTunes

MVO

1

2 сезон

iTunes

iTunes

1 сезон

RePack

30

Новинка

ВАЖНО

ИГРА 18+

pack

RePack

MK11
pack

Легкие деньги

RePack

jed

RePack

fifa19

RePack

RDR2

RePack

NEED FOR SPEED™ PAYBACK

4 сезон

9 сезон

Бесстыжие 9 сезон

Все сериалы

все сериалы на PB.wtf

RePack

FAR CRY 5

Anonymous, доброе утро, мы не успеваем собрать деньги на оплату серверов за декабрь и январь, помогите нам пожалуйста в это трудное время. В качестве благодарности мы отключим Вам всю рекламу на сайте (укажите свой ник в строку Ваше имя)!

×
  
Magnet ссылка

Фантастические твари: Преступления Грин-де-Вальда в 3Д / Fantastic Beasts: The Crimes of Grindelwald 3D (Дэвид Йейтс / David Yates) [2018, фэнтези, приключения, семейный, BDRip, 1080p] OverUnder / Вертикальная стереопара [Дубляж Лицензия] pb.wtf

Фантастические твари: Преступления Грин-де-Вальда в 3Д через торрент pb.wtf

Раздают: 1 [ 0 KB/s ]
Размер: 18.55 GB | Добавлен: 1 год 10 мес. назад | Торрент скачан:117 раз
Скачать  

12-03-2019 16:31 Фантастические твари: Преступления Грин-де-Вальда в 3Д Скачать торрент  

Фантастические твари: Преступления Грин-де-Вальда / Fantastic Beasts: The Crimes of Grindelwald

Год выпуска: 2018
Страна: Великобритания, США (Warner Bros. Pictures, Heyday Films)
Жанр: фэнтези, приключения, семейный
Продолжительность: 02:13:50

Перевод: Профессиональный дублированный(лицензия)
Русские субтитры: нет
Режиссер: Дэвид Йейтс / David Yates

В ролях: Эдди Редмэйн, Джонни Депп, Кэтрин Уотерстон, Элисон Судол, Дэн Фоглер, Джуд Лоу, Эзра Миллер, Зои Кравиц, Каллум Тернер, Клаудия Ким

Описание: Могущественный тёмный волшебник Геллерт Грин-де-Вальд пойман в Штатах, но не собирается молча сидеть в темнице и устраивает грандиозный побег. Теперь ничто не помешает ему добиться своей цели — установить превосходство волшебников над всеми немагическими существами на планете. Чтобы сорвать планы Грин-де-Вальда, Альбус Дамблдор обращается к своему бывшему студенту Ньюту Саламандеру, который соглашается помочь, не подозревая, какая опасность ему грозит. В раскалывающемся на части волшебном мире любовь и верность проверяются на прочность, а конфликт разделяет даже настоящих друзей и членов семей.

Сэмпл: http://sendfile.su/1481359

Качество: BDrip, 1080p
Контейнер: MKV
Формат 3D: OverUnder / Вертикальная стереопара
Порядок ракурсов: левый ракурс первый
Видео кодек: x264
Аудио кодек: AC3
Видео: AVC / High@L5.0 / 23,976 fps / 1920х2160 / 18,4 Мбит/сек
Аудио: Русский / AC3 / 48 KHz / 5.1 ch / 448 Кбит/сек(лицензия)
Аудио 2: Английский / AC3 / 48 KHz / 5.1 ch / 640 Кбит/сек

ВНИМАНИЕ ! На встроенных ТВ-плеерах работать не будет!!!

ТВ Samsung в названии которого есть надпись Ultra HD , и LG Ultra HD 800 серии, LG C6P, Xiaomi Mi TV 2 воспроизводят полные стереопары встроенными плеерами
Железные плееры на которых воспроизводятся полные стереопары:Popcorn C-200 , Dune HD Smart D1 , Dune HD DUO , Dune HD Smart H1 , Dune HD Smart B1 , Dune HD Max , Dune HD TV-303D, Dune HD TV-102, Dune HD Base 3D, Philips HMP7001, Aura HD, MECOOL BB2
Чтобы изображение было на весь экран в плеере выставляем, если рип 1920х1600 - то выставляем 2.35:1 , если 1920х2160 - то выставляем 16:9
Общее
Уникальный идентификатор : 252311213758127156309377803218933689762 (0xBDD15F47B8ED86679BF4247A67BEADA2)
Полное имя : G:\видео\Fantastic Beasts The Crimes of Grindelwald.Rip by SeRoGa00.mkv
Формат : Matroska
Версия формата : Version 2
Размер файла : 18,6 Гбайт
Продолжительность : 2 ч. 13 м.
Общий поток : 19,8 Мбит/сек
Дата кодирования : UTC 2019-03-12 13:14:46
Программа кодирования : mkvmerge v3.4.0 ('Rapunzel') сборка от May 15 2010 09:38:20
Библиотека кодирования : libebml v0.8.0 + libmatroska v0.9.0

Видео
Идентификатор : 1
Формат : AVC
Формат/Информация : Advanced Video Codec
Профиль формата : High@L5.0
Параметр CABAC формата : Да
Параметр ReFrames формата : 4 кадра
Идентификатор кодека : V_MPEG4/ISO/AVC
Продолжительность : 2 ч. 13 м.
Битрейт : 18,4 Мбит/сек
Ширина : 1920 пикселей
Высота : 2160 пикселей
Соотношение сторон : 0,889
Частота кадров : 23,976 кадра/сек
Цветовое пространство : YUV
Субдискретизация насыщенности : 4:2:0
Битовая глубина : 8 бит
Тип развёртки : Прогрессивная
Бит/(Пиксели*Кадры) : 0.185
Размер потока : 17,2 Гбайт (93%)
Заголовок : Rip by SeRoGa00
Библиотека кодирования : x264 core 155 r2901 7d0ff22
Настройки программы : cabac=1 / ref=4 / deblock=1:-3:-3 / analyse=0x3:0x113 / me=umh / subme=10 / psy=1 / psy_rd=1.00:0.15 / mixed_ref=1 / me_range=24 / chroma_me=1 / trellis=2 / 8x8dct=1 / cqm=0 / deadzone=21,11 / fast_pskip=1 / chroma_qp_offset=-3 / threads=18 / lookahead_threads=6 / sliced_threads=0 / nr=0 / decimate=0 / interlaced=0 / bluray_compat=0 / constrained_intra=0 / bframes=10 / b_pyramid=2 / b_adapt=2 / b_bias=0 / direct=3 / weightb=1 / open_gop=0 / weightp=2 / keyint=250 / keyint_min=23 / scenecut=40 / intra_refresh=0 / rc_lookahead=60 / rc=crf / mbtree=1 / crf=16.5 / qcomp=0.60 / qpmin=10 / qpmax=69 / qpstep=4 / vbv_maxrate=40000 / vbv_bufsize=40000 / crf_max=0.0 / nal_hrd=none / filler=0 / ip_ratio=1.40 / aq=1:1.00
Язык : English
Default : Нет
Forced : Нет

Аудио #1
Идентификатор : 2
Формат : AC-3
Формат/Информация : Audio Coding 3
Расширение режима : CM (complete main)
Параметр Endianness формата : Big
Идентификатор кодека : A_AC3
Продолжительность : 2 ч. 13 м.
Вид битрейта : Постоянный
Битрейт : 448 Кбит/сек
Каналы : 6 каналов
Расположение каналов : Front: L C R, Side: L R, LFE
Частота : 48,0 КГц
Битовая глубина : 16 бит
Метод сжатия : С потерями
Размер потока : 429 Мбайт (2%)
Язык : Russian
Default : Да
Forced : Нет

Аудио #2
Идентификатор : 3
Формат : AC-3
Формат/Информация : Audio Coding 3
Расширение режима : CM (complete main)
Параметр Endianness формата : Big
Идентификатор кодека : A_AC3
Продолжительность : 2 ч. 13 м.
Вид битрейта : Постоянный
Битрейт : 640 Кбит/сек
Каналы : 6 каналов
Расположение каналов : Front: L C R, Side: L R, LFE
Частота : 48,0 КГц
Битовая глубина : 16 бит
Метод сжатия : С потерями
Размер потока : 613 Мбайт (3%)
Язык : English
Default : Нет
Forced : Нет

Меню
00:00:00.000 : en:00:00:00.000
00:07:15.310 : en:00:07:15.310
00:21:39.381 : en:00:21:39.381
00:32:56.850 : en:00:32:56.850
00:41:41.124 : en:00:41:41.124
00:50:26.190 : en:00:50:26.190
00:58:21.540 : en:00:58:21.540
01:12:02.860 : en:01:12:02.860
01:20:23.610 : en:01:20:23.610
01:34:50.059 : en:01:34:50.059
01:43:08.557 : en:01:43:08.557
01:51:42.237 : en:01:51:42.237
02:00:31.641 : en:02:00:31.641
скриншот  

скриншот  

скриншот  

скриншот  

скриншот  

скриншот  
pb.wtf



Скачать Фантастические твари: Преступления Грин-де-Вальда в 3Д через торрент https://c.radikal.ru/c00/1903/a4/e9276c0c9d52.png Скачать фильм Фантастические твари: Преступления Грин-де-Вальда в 3Д через торрент бесплантно в хорошем качестве Описание: Могущественный тёмный волшебник Геллерт Грин-де-Вальд пойман в Штатах, но не собирается молча сидеть в темнице и устраивает ... 10 10 3
Торрент: Зарегистрирован [2019-03-12 16:31] · скачан: 117 раз
Статус: √ проверено
Размер: 18.55 GB
Как cкачать? Как скачать Фантастические твари: Преступления Грин-де-Вальда в 3Д через торрент | UTorrent

% Раздел Тема Автор DL S | L
3D Фильмы [ 11.48 GB ] Фантастические твари: Преступления Грин-де-Вальда в 3Д / Fantastic Beasts: The Crimes of Grindelwald 3D [2018 BDRip 1080p] DUB [] / Вертикальная анаморфная стереопара sheker187 Скачать
2 | 0

28-11-2019 20:33  

Отключить всю рекламу на сайте

    Дорогой пользователь! Огромная просьба, поблагодарите релизера, оцените раздачу и оставьте свои комментарий, если Вы скачали Фантастические твари: Преступления Грин-де-Вальда в 3Д через торрент бесплатно! Внесите свою лепту в развитие PiratBit!
    Комментировать посты могут только пользователи прошедшие не сложную регистрацию
    Показать сообщения:    

    Фантастические твари: Преступления Грин-де-Вальда в 3Д через торрент
    Скачать бесплатно Фантастические твари: Преступления Грин-де-Вальда в 3Д
    Фантастические твари: Преступления Грин-де-Вальда в 3Д скачать торрент
    Фантастические твари: Преступления Грин-де-Вальда в 3Д смотреть онлайн
    Cкачать фильм Фантастические твари: Преступления Грин-де-Вальда в 3Д бесплатно
    Фантастические твари: Преступления Грин-де-Вальда в 3Д скачать торрент в хорошем качестве
    Фантастические твари: Преступления Грин-де-Вальда в 3Д смотреть онлайн бесплатно в хорошем качестве


    Вы не можете начинать темы
    Вы не можете отвечать на сообщения
    Вы не можете редактировать свои сообщения
    Вы не можете удалять свои сообщения
    Вы не можете голосовать в опросах
    Вы не можете прикреплять файлы к сообщениям
    Вы можете скачивать файлы