Ссылка на приватное зеркало нашего сайта всего за 1$. Внимание количество ограничено!!!

2 сезон

iTunes

1 сезон

1

2 сезон

2 сезон

iTunes

1 сезон

RePack

30

Ultimate

ВАЖНО

ИГРА 18+

pack

RePack

MK11
pack

Забери бонус

RePack

jed

!!Акция!!

Alien_Rage

RePack

fifa19

RePack

Assassins Creed: Odyssey

RePack

NEED FOR SPEED™ PAYBACK

4 сезон

9 сезон

Бесстыжие 9 сезон

Все сериалы

все сериалы на PB.wtf

RePack

FAR CRY 5
  

Курс Биологии / A.P. Bio / Сезон: 2 / Серии: 1-13 из 13 (Османи Родригез, Райан Кейс) [2019, Комедия, WEB-DLRip] MVO [Jaskier] pb.wtf

Курс Биологии через торрент pb.wtf

Размер: 3.45 GB | Добавлен: 10 мес. назад | Торрент скачан:15 раз
Скачать  

12-03-2019 19:56 Курс Биологии Скачать торрент  

Курс Биологии | A.P. Bio

Год выпуска: 2019
Страна:США, Broadway Video, Universal Television
Жанр: Комедия
Продолжительность: ~ 00:25:00
Перевод: Профессиональный (многоголосый закадровый) | Jaskier
Субтитры: нет

Режиссёр: Османи Родригез, Райан Кейс

В ролях:

Гленн Хоуертон, Лайрик Льюис, Мэри Сон, Апарна Бриэль, Ник Пейн, Пэттон Освальт, Такер Албрицци, Эллисин Эшли Арм, Джейкоб Хьюстон

Описание:

Сюжет повествует о профессоре философии Джеке, который безмерно обожает свою работу. Однако, утратив место своей мечты, Джек перестает трудиться в качестве профессора и вынужден изменить сферу деятельности. Теперь он – учитель биологии в старшей школе. Но Джек дал всем ясно понять, что профессия учителя не является приоритетной для него и он не стремится обучать детей в школе какой-то биологии. Понимая, что в его распоряжении есть класс, который полон учеников, славящихся прекрасными знаниями и занимающих почетные места, учитель решает использовать школьников в личных целях.



Качество: WEB-DLRip
Формат: AVI

Видео: XviD, ~ 1400 kbps, 720x400 (16:9), 23.976 fps
Аудио 1: MP3, 48,0 КГц, 2 ch, 128 kbps - Rus
Аудио 2: MP3, 48,0 КГц, 2 ch, 128 kbps - Eng


Реклама: Присутствует звуковая (два раза в начале и конце по 12 сек.)
Переведено и озвучено: студией Jaskier
Общее
Полное имя                               : G:\Загрузки\A.P.Bio.S02E01.WEB-DLRip.Rus.Eng.Jaskier.avi
Формат                                   : AVI
Формат/Информация                        : Audio Video Interleave
Размер файла                             : 251 Мбайт
Продолжительность                        : 21 м. 29 с.
Общий поток                              : 1630 Кбит/сек
Программа кодирования                    : VirtualDubMod 1.5.10.3 | www.virtualdub-fr.org || (build 2550/release)
Библиотека кодирования                   : VirtualDubMod build 2550/release

Видео
Идентификатор                            : 0
Формат                                   : MPEG-4 Visual
Профиль формата                          : Advanced Simple@L5
Настройки формата                        : BVOP1 / Custom Matrix
Параметр BVOP формата                    : 1
Параметр QPel формата                    : Нет
Параметр GMC формата                     : Без точки перехода
Параметр матрицы формата                 : Выборочная
Идентификатор кодека                     : XVID
Идентификатор кодека/Подсказка           : XviD
Продолжительность                        : 21 м. 29 с.
Битрейт                                  : 1360 Кбит/сек
Ширина                                   : 720 пикселей
Высота                                   : 400 пикселей
Соотношение сторон                       : 16:9
Частота кадров                           : 23,976 (24000/1001) кадра/сек
Цветовое пространство                    : YUV
Субдискретизация насыщенности            : 4:2:0
Битовая глубина                          : 8 бит
Тип развёртки                            : Прогрессивная
Метод сжатия                             : С потерями
Бит/(Пиксели*Кадры)                      : 0.197
Размер потока                            : 209 Мбайт (83%)
Библиотека кодирования                   : XviD 73

Аудио #1
Идентификатор                            : 1
Формат                                   : MPEG Audio
Версия формата                           : Version 1
Профиль формата                          : Layer 3
Настройки формата                        : Joint stereo / MS Stereo
Идентификатор кодека                     : 55
Идентификатор кодека/Подсказка           : MP3
Продолжительность                        : 21 м. 29 с.
Вид битрейта                             : Постоянный
Битрейт                                  : 128 Кбит/сек
Каналы                                   : 2 канала
Частота                                  : 48,0 КГц
Метод сжатия                             : С потерями
Размер потока                            : 19,7 Мбайт (8%)
Выравнивание                             : Соединение по промежуткам
Продолжительность промежутка             : 42  мс. (1,00 видеокадр)
Время предзагрузки промежутка            : 504  мс.

Аудио #2
Идентификатор                            : 2
Формат                                   : MPEG Audio
Версия формата                           : Version 1
Профиль формата                          : Layer 3
Настройки формата                        : Joint stereo / MS Stereo
Идентификатор кодека                     : 55
Идентификатор кодека/Подсказка           : MP3
Продолжительность                        : 21 м. 29 с.
Вид битрейта                             : Постоянный
Битрейт                                  : 128 Кбит/сек
Каналы                                   : 2 канала
Частота                                  : 48,0 КГц
Метод сжатия                             : С потерями
Размер потока                            : 19,7 Мбайт (8%)
Выравнивание                             : Соединение по промежуткам
Продолжительность промежутка             : 42  мс. (1,00 видеокадр)
Время предзагрузки промежутка            : 504  мс.
скриншот  скриншот  скриншот  
Когда раздача ведётся путём добавления новых серий, при каждом добавлении создётся новый торрент. Чтобы начать докачку новой серии, пользователям необходимо сделать следующее:
(1) остановить скачивание,
(2) удалить старый торрент у себя из клиента (старые серии удалять не надо),
(3) скачать новый торрент и запустить его у себя в клиенте вместо старого, при этом указать клиенту путь в старую папку, куда и должно происходить скачивание новых серий.
Ваш клиент при этом должен произвести хеширование (проверку) старой папки (если не производит сам - помогите ему сделать это), и будет докачивать только те серии, которых у вас ещё нет. Старые серии при этом не удаляются, а продолжают раздаваться!
Eсли вы уже удалили старые серии, то предотвратить повторную закачку старых серий можно, отжав галочку в соответсвующих местах при запуске нового торрента. По возможности, желательно не удалять старые серии как можно дольше, чтобы релизёр не столько продолжал раздавать старые серии, а смог сконцентрироваться на новых.
pb.wtf



Скачать Курс Биологии через торрент https://i109.fastpic.ru/big/2019/0312/d4/74c0c62b403b9936ad1f5572f83a25d4.png Скачать фильм Курс Биологии через торрент бесплантно в хорошем качестве Описание: Сюжет повествует о профессоре философии Джеке, который безмерно обожает свою работу. Однако, утратив место своей мечты, Джек ... 10 10 2
Торрент: Зарегистрирован [2020-01-22 12:12] · скачан: 15 раз
Статус: √ проверено
Размер: 3.45 GB
Как cкачать? Как скачать Курс Биологии через торрент | qTorrent

% Раздел Тема Автор DL S | L
Зарубежные сериалы [ 19.41 GB ] Курс Биологии / A.P. Bio / Сезон: 2 / Серии: 1-13 из 13 [2019 WEB-DL 1080p] MVO [TVShows] bober100 Скачать
1 | 0
Зарубежные сериалы [ 1.24 GB ] Курс Биологии / A.P. Bio / Сезон: 2 / Серии: 1- из 13 [2019 WEB-DL 1080p] MVO [Jaskier] bober100 Скачать
1 | 0
Зарубежные сериалы [ 7.16 GB ] Курс Биологии / A.P. Bio / Сезон: 2 / Серии: 1-13 из 13 [2019 WEB-DL 720p] MVO [Jaskier] bober100 Скачать
1 | 0

28-11-2019 20:33  

Отключить всю рекламу на сайте

    Дорогой пользователь! Огромная просьба, поблагодарите релизера, оцените раздачу и оставьте свои комментарий, если Вы скачали Курс Биологии через торрент бесплатно! Внесите свою лепту в развитие PiratBit!
    Комментировать посты могут только пользователи прошедшие не сложную регистрацию
    Показать сообщения:    

    Курс Биологии через торрент
    Скачать бесплатно Курс Биологии
    Курс Биологии скачать торрент
    Курс Биологии смотреть онлайн
    Cкачать фильм Курс Биологии бесплатно
    Курс Биологии скачать торрент в хорошем качестве
    Курс Биологии смотреть онлайн бесплатно в хорошем качестве


    Вы не можете начинать темы
    Вы не можете отвечать на сообщения
    Вы не можете редактировать свои сообщения
    Вы не можете удалять свои сообщения
    Вы не можете голосовать в опросах
    Вы не можете прикреплять файлы к сообщениям
    Вы можете скачивать файлы