Ссылка на приватное зеркало нашего сайта всего за 1$. Внимание количество ограничено!!!

2 сезон

iTunes

1 сезон

1

2 сезон

2 сезон

iTunes

1 сезон

RePack

30

Ultimate

ВАЖНО

ИГРА 18+

pack

RePack

MK11
pack

Забери бонус

RePack

jed

!!Акция!!

Alien_Rage

RePack

fifa19

RePack

Assassins Creed: Odyssey

RePack

NEED FOR SPEED™ PAYBACK

4 сезон

9 сезон

Бесстыжие 9 сезон

Все сериалы

все сериалы на PB.wtf

RePack

FAR CRY 5
  

Курс Биологии / A.P. Bio / Сезон: 2 / Серии: 1- из 13 (Османи Родригез, Райан Кейс) [2019, Комедия, WEB-DL 1080p] MVO [Jaskier] pb.wtf

Курс Биологии через торрент pb.wtf

Размер: 1.24 GB | Добавлен: 1 год 8 мес. назад | Торрент скачан:1 раз
Скачать  

12-03-2019 20:00 Курс Биологии Скачать торрент  

Курс Биологии | A.P. Bio

Год выпуска: 2019
Страна:США, Broadway Video, Universal Television
Жанр: Комедия
Продолжительность: ~ 00:25:00
Перевод: Профессиональный (многоголосый закадровый) | Jaskier
Субтитры: английские

Режиссёр: Османи Родригез, Райан Кейс

В ролях:

Гленн Хоуертон, Лайрик Льюис, Мэри Сон, Апарна Бриэль, Ник Пейн, Пэттон Освальт, Такер Албрицци, Эллисин Эшли Арм, Джейкоб Хьюстон

Описание:

Сюжет повествует о профессоре философии Джеке, который безмерно обожает свою работу. Однако, утратив место своей мечты, Джек перестает трудиться в качестве профессора и вынужден изменить сферу деятельности. Теперь он – учитель биологии в старшей школе. Но Джек дал всем ясно понять, что профессия учителя не является приоритетной для него и он не стремится обучать детей в школе какой-то биологии. Понимая, что в его распоряжении есть класс, который полон учеников, славящихся прекрасными знаниями и занимающих почетные места, учитель решает использовать школьников в личных целях.



Качество: WEB-DL 1080p
Формат: MKV

Видео: 1920x1080 (16:9) | X264 | ~7500 kbps | 23.976 fps
Аудио 1: AC3, 48,0 КГц, 6 ch, 384 kbps - [RUS]
Аудио 2: AC3, 48,0 КГц, 6 ch, 384 kbps - [ENG]


Реклама: Присутствует звуковая (два раза в начале и конце по 12 сек.)
Переведено и озвучено: студией Jaskier
Общее
Уникальный идентификатор                 : 232932234087970308217223239803658936344 (0xAF3D1DD09AC88361AE022BE14B15A018)
Полное имя                               : G:\Загрузки\A.P.Bio.S02E01.1080p.WEB-DL.DD5.1.H.264-Jaskier.mkv
Формат                                   : Matroska
Версия формата                           : Version 2
Размер файла                             : 1,24 Гбайт
Продолжительность                        : 21 м. 29 с.
Общий поток                              : 8257 Кбит/сек
Дата кодирования                         : UTC 2019-03-12 19:12:03
Программа кодирования                    : mkvmerge v7.8.0 ('River Man') 32bit built on Apr  3 2015 12:11:22
Библиотека кодирования                   : libebml v1.3.1 + libmatroska v1.4.2

Видео
Идентификатор                            : 1
Формат                                   : AVC
Формат/Информация                        : Advanced Video Codec
Профиль формата                          : High@L4
Настройки формата                        : CABAC / 4 Ref Frames
Параметр CABAC формата                   : Да
Параметр RefFrames формата               : 4 кадра
Идентификатор кодека                     : V_MPEG4/ISO/AVC
Продолжительность                        : 21 м. 29 с.
Вид битрейта                             : Постоянный
Битрейт                                  : 7325 Кбит/сек
Номинальный битрейт                      : 10000 Кбит/сек
Ширина                                   : 1920 пикселей
Высота                                   : 1080 пикселей
Соотношение сторон                       : 16:9
Режим частоты кадров                     : Постоянный
Частота кадров                           : 23,976 (24000/1001) кадра/сек
Цветовое пространство                    : YUV
Субдискретизация насыщенности            : 4:2:0
Битовая глубина                          : 8 бит
Тип развёртки                            : Прогрессивная
Бит/(Пиксели*Кадры)                      : 0.147
Размер потока                            : 1,10 Гбайт (89%)
Язык                                     : English
Default                                  : Да
Forced                                   : Нет
Цветовой диапазон                        : Limited
Основные цвета                           : BT.709
Характеристики трансфера                 : BT.709
Коэффициенты матрицы                     : BT.709

Аудио #1
Идентификатор                            : 2
Формат                                   : AC-3
Формат/Информация                        : Audio Coding 3
Коммерческое название                    : Dolby Digital
Идентификатор кодека                     : A_AC3
Продолжительность                        : 21 м. 29 с.
Вид битрейта                             : Постоянный
Битрейт                                  : 384 Кбит/сек
Каналы                                   : 6 каналов
Channel layout                           : L R C LFE Ls Rs
Частота                                  : 48,0 КГц
Частота кадров                           : 31,250 кадров/сек (1536 SPF)
Битовая глубина                          : 16 бит
Метод сжатия                             : С потерями
Размер потока                            : 59,0 Мбайт (5%)
Заголовок                                : Jaskier
Язык                                     : Russian
ServiceKind/String                       : Complete Main
Default                                  : Да
Forced                                   : Нет

Аудио #2
Идентификатор                            : 3
Формат                                   : AC-3
Формат/Информация                        : Audio Coding 3
Коммерческое название                    : Dolby Digital
Идентификатор кодека                     : A_AC3
Продолжительность                        : 21 м. 29 с.
Вид битрейта                             : Постоянный
Битрейт                                  : 384 Кбит/сек
Каналы                                   : 6 каналов
Channel layout                           : L R C LFE Ls Rs
Частота                                  : 48,0 КГц
Частота кадров                           : 31,250 кадров/сек (1536 SPF)
Битовая глубина                          : 16 бит
Метод сжатия                             : С потерями
Размер потока                            : 59,0 Мбайт (5%)
Язык                                     : English
ServiceKind/String                       : Complete Main
Default                                  : Нет
Forced                                   : Нет

Текст
Идентификатор                            : 4
Формат                                   : UTF-8
Идентификатор кодека                     : S_TEXT/UTF8
Идентификатор кодека/Информация          : UTF-8 Plain Text
Язык                                     : English
Default                                  : Нет
Forced                                   : Нет
скриншот  скриншот  скриншот  
Когда раздача ведётся путём добавления новых серий, при каждом добавлении создётся новый торрент. Чтобы начать докачку новой серии, пользователям необходимо сделать следующее:
(1) остановить скачивание,
(2) удалить старый торрент у себя из клиента (старые серии удалять не надо),
(3) скачать новый торрент и запустить его у себя в клиенте вместо старого, при этом указать клиенту путь в старую папку, куда и должно происходить скачивание новых серий.
Ваш клиент при этом должен произвести хеширование (проверку) старой папки (если не производит сам - помогите ему сделать это), и будет докачивать только те серии, которых у вас ещё нет. Старые серии при этом не удаляются, а продолжают раздаваться!
Eсли вы уже удалили старые серии, то предотвратить повторную закачку старых серий можно, отжав галочку в соответсвующих местах при запуске нового торрента. По возможности, желательно не удалять старые серии как можно дольше, чтобы релизёр не столько продолжал раздавать старые серии, а смог сконцентрироваться на новых.
pb.wtf



Скачать Курс Биологии через торрент https://i109.fastpic.ru/big/2019/0312/d4/74c0c62b403b9936ad1f5572f83a25d4.png Скачать фильм Курс Биологии через торрент бесплантно в хорошем качестве Описание: Сюжет повествует о профессоре философии Джеке, который безмерно обожает свою работу. Однако, утратив место своей мечты, Джек ... 10 10 2
Торрент: Зарегистрирован [2019-03-12 20:00] · скачан: 1 раз
Статус: √ проверено
Размер: 1.24 GB
Как cкачать? Как скачать Курс Биологии через торрент | qTorrent

% Раздел Тема Автор DL S | L
Зарубежные сериалы [ 19.41 GB ] Курс Биологии / A.P. Bio / Сезон: 2 / Серии: 1-13 из 13 [2019 WEB-DL 1080p] MVO [TVShows] bober100 Скачать
1 | 0
Зарубежные сериалы [ 7.16 GB ] Курс Биологии / A.P. Bio / Сезон: 2 / Серии: 1-13 из 13 [2019 WEB-DL 720p] MVO [Jaskier] bober100 Скачать
1 | 0
Зарубежные сериалы [ 3.45 GB ] Курс Биологии / A.P. Bio / Сезон: 2 / Серии: 1-13 из 13 [2019 WEB-DLRip] MVO [Jaskier] bober100 Скачать
1 | 0

28-11-2019 20:33  

Отключить всю рекламу на сайте

    Дорогой пользователь! Огромная просьба, поблагодарите релизера, оцените раздачу и оставьте свои комментарий, если Вы скачали Курс Биологии через торрент бесплатно! Внесите свою лепту в развитие PiratBit!
    Комментировать посты могут только пользователи прошедшие не сложную регистрацию
    Показать сообщения:    

    Курс Биологии через торрент
    Скачать бесплатно Курс Биологии
    Курс Биологии скачать торрент
    Курс Биологии смотреть онлайн
    Cкачать фильм Курс Биологии бесплатно
    Курс Биологии скачать торрент в хорошем качестве
    Курс Биологии смотреть онлайн бесплатно в хорошем качестве


    Вы не можете начинать темы
    Вы не можете отвечать на сообщения
    Вы не можете редактировать свои сообщения
    Вы не можете удалять свои сообщения
    Вы не можете голосовать в опросах
    Вы не можете прикреплять файлы к сообщениям
    Вы можете скачивать файлы