Ссылка на приватное зеркало нашего сайта всего за 1$. Внимание количество ограничено!!!

2 сезон

iTunes

1 сезон

1

2 сезон

2 сезон

iTunes

1 сезон

RePack

30

Новинка

ВАЖНО

ИГРА 18+

pack

RePack

MK11
pack

Забери бонус

RePack

jed

!!Акция!!

Alien_Rage

RePack

fifa19

RePack

Assassins Creed: Odyssey

RePack

NEED FOR SPEED™ PAYBACK

4 сезон

9 сезон

Бесстыжие 9 сезон

Все сериалы

все сериалы на PB.wtf

RePack

FAR CRY 5
  

По друзьям / Crashing / Сезон: 2 / Серии: 1-8 из 8 (Джадд Апатоу, Джефф Шеффер, Крис Келли) [2018, Комедия, WEB-DL 720p] MVO [Jaskier] pb.wtf

По друзьям через торрент pb.wtf

Размер: 7.99 GB | Добавлен: 1 год 8 мес. назад | Торрент скачан:2 раза
Скачать  

13-03-2019 04:50 По друзьям Скачать торрент  

По друзьям / Crashing

Год выпуска: 2018
Страна: США
Жанр: Комедия
Продолжительность: ~ 00:24:00
Перевод: Профессиональный (многоголосый закадровый) | Jaskier (без цензуры)
Субтитры: отсутствуют

Режиссёр: Джадд Апатоу, Джефф Шеффер, Крис Келли

В ролях: Пит Холмс, Лорен Лапкус, Джордж Бейзил, Арти Лэнг, ТиДжей Миллер, Джои Озенн, Грир Барнс, Капиль Бава, Илана Бекер, Эми Беттина и др.

Описание: Стендап-комика по имени Пит вполне можно было назвать счастливым человеком. Его устраивала его жизнь и ничего кардинально он не собирался в ней менять. Однако так было лишь до того момента, пока он не застал собственную жену в объятиях другого мужчины. Пит принимает решение начать всё с чистого листа в очень шумном городе Нью-Йорк, где он хочет пережить утрату и снова стать счастливым. В этом ему помогут его лучшие друзья.

rating

Качество: WEB-DL 720p
Формат: MKV

Видео: X264, ~ 3700 kbps, 1280x720 (16:9), 23.976 fps
Аудио 1: AC3, 48,0 КГц, 6 ch, 384 kbps - Rus
Аудио 2: AC3, 48,0 КГц, 6 ch, 384 kbps - ENG


Реклама: аудио, два раза в начале и в конце по 13 секунд
Общее
Уникальный идентификатор : 182305705188024243506825562949449630607 (0x8926CD39F1FD91AE9EB33071CB33438F)
Полное имя : X:\00000\Crashing. Season 2 (WEB-DL l 720p l Jaskier)\Crashing.2017.S02E01.720p.Jaskier.mkv
Формат : Matroska
Версия формата : Version 2
Размер файла : 956 Мбайт
Продолжительность : 29 м.
Режим общего битрейта : Переменный
Общий поток : 4540 Кбит/сек
Дата кодирования : UTC 2018-01-28 19:06:36
Программа кодирования : mkvmerge v5.8.0 ('No Sleep / Pillow') built on Sep 2 2012 15:37:04
Библиотека кодирования : libebml v1.2.3 + libmatroska v1.3.0

Видео
Идентификатор : 1
Формат : AVC
Формат/Информация : Advanced Video Codec
Профиль формата : High@L3.1
Параметр CABAC формата : Да
Параметр ReFrames формата : 5 кадров
Идентификатор кодека : V_MPEG4/ISO/AVC
Продолжительность : 29 м.
Вид битрейта : Переменный
Битрейт : 3681 Кбит/сек
Максимальный битрейт : 4500 Кбит/сек
Ширина : 1280 пикселей
Высота : 720 пикселей
Соотношение сторон : 16:9
Режим частоты кадров : Постоянный
Частота кадров : 23,976 (24000/1001) кадра/сек
Цветовое пространство : YUV
Субдискретизация насыщенности : 4:2:0
Битовая глубина : 8 бит
Тип развёртки : Прогрессивная
Бит/(Пиксели*Кадры) : 0.167
Размер потока : 775 Мбайт (81%)
Default : Да
Forced : Нет
Цветовой диапазон : Limited
Основные цвета : BT.709
Характеристики трансфера : BT.709
Коэффициенты матрицы : BT.709

Аудио #1
Идентификатор : 2
Формат : AC-3
Формат/Информация : Audio Coding 3
Расширение режима : CM (complete main)
Параметр Endianness формата : Big
Идентификатор кодека : A_AC3
Продолжительность : 29 м.
Вид битрейта : Постоянный
Битрейт : 384 Кбит/сек
Каналы : 6 каналов
Расположение каналов : Front: L C R, Side: L R, LFE
Частота : 48,0 КГц
Частота кадров : 31,250 кадров/сек (1536 spf)
Метод сжатия : С потерями
Размер потока : 80,9 Мбайт (8%)
Язык : Russian
Default : Да
Forced : Нет

Аудио #2
Идентификатор : 3
Формат : AC-3
Формат/Информация : Audio Coding 3
Расширение режима : CM (complete main)
Параметр Endianness формата : Big
Идентификатор кодека : A_AC3
Продолжительность : 29 м.
Вид битрейта : Постоянный
Битрейт : 384 Кбит/сек
Каналы : 6 каналов
Расположение каналов : Front: L C R, Side: L R, LFE
Частота : 48,0 КГц
Частота кадров : 31,250 кадров/сек (1536 spf)
Метод сжатия : С потерями
Размер потока : 80,9 Мбайт (8%)
Язык : English
Default : Нет
Forced : Нет
скриншот  скриншот  скриншот  
pb.wtf



Скачать По друзьям через торрент http://i102.fastpic.ru/big/2018/0128/ac/9b3403227b8f24af52a30bf674fea8ac.png Скачать фильм По друзьям через торрент бесплантно в хорошем качестве Описание: Стендап-комика по имени Пит вполне можно было назвать счастливым человеком. Его устраивала его жизнь и ничего кардинально он не ... 7 10 3
Торрент: Зарегистрирован [2019-03-13 04:50] · скачан: 2 раз
Статус: √ проверено
Размер: 7.99 GB
Как cкачать? Как скачать По друзьям через торрент | qTorrent

% Раздел Тема Автор DL S | L
Зарубежные сериалы [ 2.9 GB ] По друзьям / Crashing / Сезон: 2 / Серии: 1-8 из 8 [2018 WEB-DLRip] MVO [Jaskier] bober100 Скачать
1 | 0

28-11-2019 20:33  

Отключить всю рекламу на сайте

    Дорогой пользователь! Огромная просьба, поблагодарите релизера, оцените раздачу и оставьте свои комментарий, если Вы скачали По друзьям через торрент бесплатно! Внесите свою лепту в развитие PiratBit!
    Комментировать посты могут только пользователи прошедшие не сложную регистрацию
    Показать сообщения:    

    По друзьям через торрент
    Скачать бесплатно По друзьям
    По друзьям скачать торрент
    По друзьям смотреть онлайн
    Cкачать фильм По друзьям бесплатно
    По друзьям скачать торрент в хорошем качестве
    По друзьям смотреть онлайн бесплатно в хорошем качестве


    Вы не можете начинать темы
    Вы не можете отвечать на сообщения
    Вы не можете редактировать свои сообщения
    Вы не можете удалять свои сообщения
    Вы не можете голосовать в опросах
    Вы не можете прикреплять файлы к сообщениям
    Вы можете скачивать файлы