новый адрес
Мега распродажа FORZA HORIZON 4 ULTIMATE+ВСЕ DLC+ОНЛАЙН всего за 499р. 349 руб. (супер цена). Внимание количество ограничено!!!

iTunes

1+1

iTunes

мы

iTunes

1

iTunes

Чернобыль

iTunes

Ральф против интернета

Лицензия

ПШазам

Лицензия

Игра престолов

Лицензия

30
pack

ВАЖНО

!!Акция!!

Alien_RageХит недели

RePack

Resident Evil 21

ИГРА 18+

pack

RePack

Metro:Exodus

!!Акция!!

Alien_Rage

RePack

fifa19

RePack

Assassins Creed: Odyssey

RePack

NEED FOR SPEED™ PAYBACK

3 сезон

9 сезон

Бесстыжие 9 сезон

Все сериалы

все сериалы на PB.wtf

RePack

FAR CRY 5
Ребята, катастрофически не хватает 1900р. для оплаты серверов за Октябрь (всвязи с блокировками трафик упал в 3 раза), 1-2р., выручайте.
  

Бей, барабан! (Алексей Салтыков) [1963, СССР, семейный, VHSRip от AVP Studio] pb.wtf

Бей, барабан! через торрент pb.wtf

Размер: 745 MB | Добавлен: 8 мес. назад | Торрент скачан:5 раз
Скачать  

13-03-2019 07:38 Бей, барабан! Скачать торрент  

Бей, барабан!
Страна: СССР
Производство: Мосфильм

Жанр: семейный
Год выпуска: 1963
Продолжительность: 01:22:23

Перевод: Не требуется
Cубтитры: нет
Оригинальная аудиодорожка: русский

Режиссер: Алексей Салтыков

В ролях:
Алексей Крыченков, Люся Слепнева, Александр Демьяненко, Савелий Крамаров, Виталий Ованесов, Татьяна Конюхова, Иван Рыжов, Гарри Дунц, Владимир Покровский, Георгий Черноволенко, Борис Новиков...
Об актёрах подробней

Описание:
Первоклассник Ленька Казаков и молодой рабочий Митька Лбач (Александр Демьяненко)организовывают на Красной Пресне первый пионерский отряд и называют его Всемирным союзом юных пролетариев. Попав в детдом, Ленька начинает налаживать советскую Влacть среди беспризорников. Первый выпуск газеты "Барабан" обеспечил юному борцу за правое дело настоящих друзей и откровенных врагов...

Исходник: VHS
Качество видео: VHSRip
Формат видео: AVI

Видео: 720x304 (2,35:1), 25,000 кадров/сек, XviD ~ 1063 kbps avg, 0.194 bit/pixel
Аудио: 48 kHz, Dolby Digital AC3 2.0, 192 kbps

Раздача от:
Общее
Полное имя : Bey,baraban!1963.VHSRip_[New-team]_by_AVP_Studio.avi
Формат : AVI
Формат/Информация : Audio Video Interleave
Размер файла : 745 Мбайт
Продолжительность : 1 ч. 22 м.
Общий поток : 1265 Кбит/сек
Программа кодирования : VirtualDubMod 1.5.10.3 | www.virtualdub-fr.org || (build 2550/release)
Библиотека кодирования : VirtualDubMod build 2550/release

Видео
Идентификатор : 0
Формат : MPEG-4 Visual
Профиль формата : Advanced Simple@L5
Настройки формата : BVOP1 / Custom Matrix
Параметр BVOP формата : 1
Параметр QPel формата : Нет
Параметр GMC формата : Без точки перехода
Параметр матрицы формата : Выборочная
Идентификатор кодека : XVID
Идентификатор кодека/Подсказка : XviD
Продолжительность : 1 ч. 22 м.
Битрейт : 1063 Кбит/сек
Ширина : 720 пикселей
Высота : 304 пикселя
Соотношение сторон : 2,35:1
Частота кадров : 25,000 кадров/сек
Цветовое пространство : YUV
Субдискретизация насыщенности : 4:2:0
Битовая глубина : 8 бит
Тип развёртки : Прогрессивная
Метод сжатия : С потерями
Бит/(Пиксели*Кадры) : 0.194
Размер потока : 626 Мбайт (84%)
Библиотека кодирования : XviD 73

Аудио
Идентификатор : 1
Формат : AC-3
Формат/Информация : Audio Coding 3
Коммерческое название : Dolby Digital
Идентификатор кодека : 2000
Продолжительность : 1 ч. 22 м.
Вид битрейта : Постоянный
Битрейт : 192 Кбит/сек
Каналы : 2 канала
Channel layout : L R
Частота : 48,0 КГц
Частота кадров : 31,250 кадров/сек (1536 SPF)
Битовая глубина : 16 бит
Метод сжатия : С потерями
Размер потока : 113 Мбайт (15%)
Выравнивание : Разделение по промежуткам
Продолжительность промежутка : 40 мс. (1,00 видеокадр)
Время предзагрузки промежутка : 500 мс
pb.wtf



Скачать Бей, барабан! через торрент http://picplus.ru/img/1903/13/33bbd8dc.png Скачать фильм Бей, барабан! через торрент бесплантно в хорошем качестве Описание:Первоклассник Ленька Казаков и молодой рабочий Митька Лбач (Александр Демьяненко)организовывают на Красной Пресне первый ... 10 10 2
Торрент: Зарегистрирован [2019-03-13 07:38] · скачан: 5 раз
Статус: √ проверено
Размер: 745 MB
Как cкачать? Как скачать Бей, барабан! через торрент | qTorrent

% Раздел Тема Автор DL S | L
Кино СССР [ 744 MB ] Бей барабан! [1963 СССР VHSRip-AVC от AVP Studio] AVP Studio Скачать
1 | 0


>> Регистрируемся здесь <<






Отзывы и комментарии о схеме читаем и пишем здесь: ---> Отзывы и комментарии о схеме

Новые благодарочки в телеграм довольных пользователей:
скриншот   скриншот   скриншот   скриншот   скриншот
    Дорогой пользователь! Огромная просьба, поблагодарите релизера, оцените раздачу и оставьте свои комментарий, если Вы скачали Бей, барабан! через торрент бесплатно! Внесите свою лепту в развитие PiratBit!
    Комментировать посты могут только пользователи прошедшие не сложную регистрацию
    Показать сообщения:    

    Бей, барабан! через торрент
    Скачать бесплатно Бей, барабан!
    Бей, барабан! скачать торрент
    Бей, барабан! смотреть онлайн
    Cкачать фильм Бей, барабан! бесплатно
    Бей, барабан! скачать торрент в хорошем качестве
    Бей, барабан! смотреть онлайн бесплатно в хорошем качестве


    Вы не можете начинать темы
    Вы не можете отвечать на сообщения
    Вы не можете редактировать свои сообщения
    Вы не можете удалять свои сообщения
    Вы не можете голосовать в опросах
    Вы не можете прикреплять файлы к сообщениям
    Вы можете скачивать файлы