Ссылка на приватное зеркало всего за 1$. Внимание количество ограничено!!!

OK

1+1

iTunes

мы

OK

1

WEB-DLRip

Джокер

Пифагор

Ведьмак / The Witcher сериал

iTunes

ПШазам

ОК

Оно 2

iTunes

30
pack

Вам бонус

ВАЖНО

!!Акция!!

Alien_RageХит недели

RePack

Resident Evil 21

ИГРА 18+

pack

RePack

jed

RePack

fifa19

RePack

Assassins Creed: Odyssey

RePack

NEED FOR SPEED™ PAYBACK

4 сезон

9 сезон

Бесстыжие 9 сезон

Все сериалы

все сериалы на PB.wtf

RePack

FAR CRY 5
  

Удачи тебе, Ворчун / Ilosia aikoja, Mielensapahoittaja (Тийна Люми) [2018 г., Драма,комедия, WEB-DLRip, Любительский (многоголосый)(Синема УС)] pb.wtf

Удачи тебе, Ворчун через торрент pb.wtf

Раздают: 2 [ 0 KB/s ]
Размер: 1.43 GB | Добавлен: 10 мес. назад | Торрент скачан:87 раз
Скачать  

13-03-2019 11:12 Удачи тебе, Ворчун Скачать торрент  

Удачи тебе Ворчун / Ilosia aikoja Mielensapahoittaja
Год выпуска: 2018
Страна: Финляндия
Жанр: Драма,комедия
Продолжительность: 01:50:24
Перевод: Любительский (многоголосый)(Синема УС)
Субтитры: Отсутствуют

Режиссер: Тийна Люми

rating

В ролях: Хейкки Киннунен, Сату Туули Карху, Элина Книхтиля, Яни Воланен, Иикка Форсс, Мари Перанкоски, Сулеви Пелтола, Янне Реинкаинен, Лотта Каихуа, Петра Фрэй

Описание: Ворчун хочет умереть, потому что вся работа уже проделана и смысл жизни пропал. Но вместе с мрачными мыслями к нему неожиданно приходит новая забота. Его 17-летняя внучка София оказалась в беде, и остро нуждается в упрямстве и мудрости своего деда. Так Ворчун обретает новый смысл жизни и желание раскрыть тайну. Колючий, как еж, старик и молодая городская девушка собираются вместе. Две половинки целого готовы слиться воедино.

Доп. информация: Присутствуют вставки текстовой рекламы

Качество: WEB-DLRip
Формат: AVI
Видео кодек: XviD
Аудио кодек: AC3
Видео: XviD, 720x304, ~1646 Kbps
Аудио#1: AC-3, 2 ch, 192 Kbps
скриншот   скриншот   скриншот   скриншот  

Общее
Полное имя : E:\NNM\Удачи тебе, Ворчун\Happy times 2018 WEB-DLRip.avi
Формат : AVI
Формат/Информация : Audio Video Interleave
Профиль формата : OpenDML
Размер файла : 1,43 Гбайт
Продолжительность : 1 ч. 50 м.
Общий поток : 1850 Кбит/сек

Видео
Идентификатор : 0
Формат : MPEG-4 Visual
Профиль формата : Advanced Simple@L5
Настройки формата : BVOP2 / Custom Matrix
Параметр BVOP формата : 2
Параметр QPel формата : Нет
Параметр GMC формата : Без точки перехода
Параметр матрицы формата : Выборочная
Идентификатор кодека : XVID
Идентификатор кодека/Подсказка : XviD
Продолжительность : 1 ч. 50 м.
Битрейт : 1646 Кбит/сек
Ширина : 720 пикселей
Высота : 304 пикселя
Соотношение сторон : 2,35:1
Частота кадров : 23,976 (24000/1001) кадра/сек
Цветовое пространство : YUV
Субдискретизация насыщенности : 4:2:0
Битовая глубина : 8 бит
Тип развёртки : Прогрессивная
Метод сжатия : С потерями
Бит/(Пиксели*Кадры) : 0.314
Размер потока : 1,27 Гбайт (89%)
Библиотека кодирования : XviD 1.2.1 (UTC 2008-12-04)

Аудио
Идентификатор : 1
Формат : AC-3
Формат/Информация : Audio Coding 3
Идентификатор кодека : 2000
Продолжительность : 1 ч. 50 м.
Вид битрейта : Постоянный
Битрейт : 192 Кбит/сек
Каналы : 2 канала
Расположение каналов : Front: L R
Частота : 48,0 КГц
Частота кадров : 31,250 кадров/сек (1536 SPF)
Битовая глубина : 16 бит
Метод сжатия : С потерями
Размер потока : 152 Мбайт (10%)
Выравнивание : Соединение по промежуткам
Продолжительность промежутка : 32 мс. (0,77 видеокадр)
ServiceKind/String : Complete Main

pb.wtf



Скачать Удачи тебе, Ворчун через торрент http://pic1.kartinco.top/images/12/ng2ny.jpg Скачать фильм Удачи тебе, Ворчун через торрент бесплантно в хорошем качестве Описание: Ворчун хочет умереть, потому что вся работа уже проделана и смысл жизни пропал. Но вместе с мрачными мыслями к нему неожиданно ... 5.5 10 2
Торрент: Зарегистрирован [2019-03-13 11:12] · скачан: 87 раз
Статус: T временная
Размер: 1.43 GB
Как cкачать? Как скачать Удачи тебе, Ворчун через торрент | qTorrent

28-11-2019 20:33  

Отключить всю рекламу на сайте

    Дорогой пользователь! Огромная просьба, поблагодарите релизера, оцените раздачу и оставьте свои комментарий, если Вы скачали Удачи тебе, Ворчун через торрент бесплатно! Внесите свою лепту в развитие PiratBit!
    Комментировать посты могут только пользователи прошедшие не сложную регистрацию
    Показать сообщения:    

    Удачи тебе, Ворчун через торрент
    Скачать бесплатно Удачи тебе, Ворчун
    Удачи тебе, Ворчун скачать торрент
    Удачи тебе, Ворчун смотреть онлайн
    Cкачать фильм Удачи тебе, Ворчун бесплатно
    Удачи тебе, Ворчун скачать торрент в хорошем качестве
    Удачи тебе, Ворчун смотреть онлайн бесплатно в хорошем качестве


    Вы не можете начинать темы
    Вы не можете отвечать на сообщения
    Вы не можете редактировать свои сообщения
    Вы не можете удалять свои сообщения
    Вы не можете голосовать в опросах
    Вы не можете прикреплять файлы к сообщениям
    Вы можете скачивать файлы