Ссылка на приватное зеркало всего за 1$. Внимание количество ограничено!!!

OK

1+1

iTunes

мы

OK

1

WEB-DLRip

Джокер

Пифагор

Ведьмак / The Witcher сериал

iTunes

ПШазам

ОК

Оно 2

iTunes

30
pack

Вам бонус

ВАЖНО

!!Акция!!

Alien_RageХит недели

RePack

Resident Evil 21

ИГРА 18+

pack

RePack

jed

RePack

fifa19

RePack

Assassins Creed: Odyssey

RePack

NEED FOR SPEED™ PAYBACK

4 сезон

9 сезон

Бесстыжие 9 сезон

Все сериалы

все сериалы на PB.wtf

RePack

FAR CRY 5
  

Юкатан / Yucatan (Даниэль Монсон) [2018 г., Комедия, HDRip, Любительский (многоголосый) (Синема УС)] pb.wtf

Юкатан через торрент pb.wtf

Размер: 2.03 GB | Добавлен: 10 мес. назад | Торрент скачан:77 раз
Скачать  

13-03-2019 11:41 Юкатан Скачать торрент  

Юкатан / Yucatan
Год выпуска: 2018
Страна: Испания
Жанр: Комедия
Продолжительность: 02:09:31
Перевод: Любительский (многоголосый) (Синема УС)
Субтитры: Отсутствуют

Режиссер: Даниэль Монсон

rating

В ролях: Луис Тосар, Родриго Де ла Серна, Жоан Пера, Стефани Кайо, Глория Муньос, Алисия Фернандес, Ткселл Эксендри, Лупе Рода, Августин Хименес, Хорхе Асин

Описание: Пекарь Антонио, выиграв в лотерею 160 миллионов евро, отправляется в морской круиз вместе со своей семьей. На том же судне оказываются и два конкурирующих афериста Лукас и Роберто, а также их возлюбленная Вероника. Эта троица хочет обвести простодушного пекаря вокруг пальца и заполучить его деньги.

Доп. информация: Присутствуют вставки текстовой рекламы

Качество: HDRip
Формат: AVI
Видео кодек: XviD
Аудио кодек: AC3
Видео: XviD, 720x304, ~1785 Kbps
Аудио#1: AC-3, 2 ch, 448 Kbps
скриншот   скриншот   скриншот   скриншот  

Общее
Полное имя : C:\_\Юкатан\Yucatan 2018 HDRip.avi
Формат : AVI
Формат/Информация : Audio Video Interleave
Профиль формата : OpenDML
Размер файла : 2,03 Гбайт
Продолжительность : 2 ч. 9 м.
Общий поток : 2243 Кбит/сек

Видео
Идентификатор : 0
Формат : MPEG-4 Visual
Профиль формата : Advanced Simple@L5
Параметр BVOP формата : 2
Параметр QPel формата : Нет
Параметр GMC формата : Без точки перехода
Параметр матрицы формата : Выборочная
Идентификатор кодека : XVID
Идентификатор кодека/Подсказка : XviD
Продолжительность : 2 ч. 9 м.
Битрейт : 1785 Кбит/сек
Ширина : 720 пикселей
Высота : 304 пикселя
Соотношение сторон : 2,35:1
Частота кадров : 23,976 (24000/1001) кадра/сек
Цветовое пространство : YUV
Субдискретизация насыщенности : 4:2:0
Битовая глубина : 8 бит
Тип развёртки : Прогрессивная
Метод сжатия : С потерями
Бит/(Пиксели*Кадры) : 0.340
Размер потока : 1,61 Гбайт (80%)
Библиотека кодирования : XviD 1.2.1 (UTC 2008-12-04)

Аудио
Идентификатор : 1
Формат : AC-3
Формат/Информация : Audio Coding 3
Расширение режима : CM (complete main)
Параметр Endianness формата : Big
Идентификатор кодека : 2000
Продолжительность : 2 ч. 9 м.
Вид битрейта : Постоянный
Битрейт : 448 Кбит/сек
Каналы : 2 канала
Расположение каналов : Front: L R
Частота : 48,0 КГц
Частота кадров : 31,250 кадров/сек (1536 spf)
Метод сжатия : С потерями
Размер потока : 415 Мбайт (20%)
Выравнивание : Соединение по промежуткам
Продолжительность промежутка : 32 мс. (0,77 видеокадр)

pb.wtf



Скачать Юкатан через торрент http://pic1.kartinco.top/images/12/tgr5s.jpg Скачать фильм Юкатан через торрент бесплантно в хорошем качестве Описание: Пекарь Антонио, выиграв в лотерею 160 миллионов евро, отправляется в морской круиз вместе со своей семьей. На том же судне ... 10 10 1
Торрент: Зарегистрирован [2019-03-13 11:41] · скачан: 77 раз
Статус: T временная
Размер: 2.03 GB
Как cкачать? Как скачать Юкатан через торрент | qTorrent

28-11-2019 20:33  

Отключить всю рекламу на сайте

    Дорогой пользователь! Огромная просьба, поблагодарите релизера, оцените раздачу и оставьте свои комментарий, если Вы скачали Юкатан через торрент бесплатно! Внесите свою лепту в развитие PiratBit!
    Комментировать посты могут только пользователи прошедшие не сложную регистрацию
    Показать сообщения:    

    Юкатан через торрент
    Скачать бесплатно Юкатан
    Юкатан скачать торрент
    Юкатан смотреть онлайн
    Cкачать фильм Юкатан бесплатно
    Юкатан скачать торрент в хорошем качестве
    Юкатан смотреть онлайн бесплатно в хорошем качестве


    Вы не можете начинать темы
    Вы не можете отвечать на сообщения
    Вы не можете редактировать свои сообщения
    Вы не можете удалять свои сообщения
    Вы не можете голосовать в опросах
    Вы не можете прикреплять файлы к сообщениям
    Вы можете скачивать файлы