Ссылка на приватное зеркало всего за 1$. Внимание количество ограничено!!!

OK

1+1

iTunes

мы

OK

1

WEB-DLRip

Джокер

Пифагор

Ведьмак / The Witcher сериал

iTunes

ПШазам

ОК

Оно 2

iTunes

30
pack

Вам бонус

ВАЖНО

!!Акция!!

Alien_RageХит недели

RePack

Resident Evil 21

ИГРА 18+

pack

RePack

jed

RePack

fifa19

RePack

Assassins Creed: Odyssey

RePack

NEED FOR SPEED™ PAYBACK

4 сезон

9 сезон

Бесстыжие 9 сезон

Все сериалы

все сериалы на PB.wtf

RePack

FAR CRY 5
  

Мастер Z: Наследие Ип Мана / Cheung Tin-Chi (Юэнь Ву-Пин) [2018, боевик, WEB-DL 1080p] MVO [@MUZOBOZ@] pb.wtf

Мастер Z: Наследие Ип Мана через торрент pb.wtf

Размер: 4.91 GB | Добавлен: 10 мес. назад | Торрент скачан:251 раз
Скачать  

13-03-2019 15:16 Мастер Z: Наследие Ип Мана Скачать торрент  

Мастер Z: Наследие Ип Мана / Cheung Tin-Chi Год выпуска: 2018
Страна: Китай, Гонконг
Жанр: боевик
Продолжительность: 01:48:09
Перевод: Любительский (многоголосый) | @MUZOBOZ@
Субтитры: Китайские (Вшитые)

Режиссер: Юэнь Ву-Пин

rating

В ролях:

Макс Чжан, Дэйв Батиста, Мишель Йео, Тони Джа, Крисси Чау, Кевин Чэн, Син Юй, Филип Кюн

Описание:

После поражения от Ип Мана Чун Тинь-Чи решает исправиться и вести тихую мирную жизнь, но зло само нарывается на неприятности.

Качество: WEB-DL 1080p
Формат: MKV

Видео: 6 109 Кбит/с, 1920x800
Аудио#1: Русский, (AC3, 2 ch, 384 Кбит/с)
скриншот  скриншот  скриншот  

Общее
Уникальный идентификатор : 186847486778402933893335560058680173842 (0x8C918458EEB914129E98C1971964E512)
Полное имя : D:\Master.Z.Ip.Man.Legacy.2018.P.WEB-DL.1O8Op.mkv
Формат : Matroska
Версия формата : Version 2
Размер файла : 4,91 Гбайт
Продолжительность : 1 ч. 48 м.
Режим общего битрейта : Переменный
Общий поток : 6495 Кбит/сек
Дата кодирования : UTC 2019-03-13 03:03:54
Программа кодирования : mkvmerge v8.3.0 ('Over the Horizon') 64bit
Библиотека кодирования : libebml v1.3.1 + libmatroska v1.4.2

Видео
Идентификатор : 1
Формат : AVC
Формат/Информация : Advanced Video Codec
Профиль формата : High@L4.1
Параметр CABAC формата : Да
Параметр RefFrames формата : 4 кадра
Идентификатор кодека : V_MPEG4/ISO/AVC
Продолжительность : 1 ч. 48 м.
Вид битрейта : Переменный
Битрейт : 6108 Кбит/сек
Максимальный битрейт : 6900 Кбит/сек
Ширина : 1920 пикселей
Высота : 800 пикселей
Соотношение сторон : 2,40:1
Режим частоты кадров : Постоянный
Частота кадров : 23,976 (24000/1001) кадра/сек
Стандарт вещания : Component
Цветовое пространство : YUV
Субдискретизация насыщенности : 4:2:0
Битовая глубина : 8 бит
Тип развёртки : Прогрессивная
Бит/(Пиксели*Кадры) : 0.162
Размер потока : 4,52 Гбайт (92%)
Default : Да
Forced : Нет
Цветовой диапазон : Limited
Основные цвета : BT.709
Характеристики трансфера : BT.709
Коэффициенты матрицы : BT.709

Аудио
Идентификатор : 2
Формат : AC-3
Формат/Информация : Audio Coding 3
Расширение режима : CM (complete main)
Параметр Endianness формата : Big
Идентификатор кодека : A_AC3
Продолжительность : 1 ч. 48 м.
Вид битрейта : Постоянный
Битрейт : 384 Кбит/сек
Каналы : 2 канала
Расположение каналов : Front: L R
Частота : 48,0 КГц
Частота кадров : 31,250 кадров/сек (1536 spf)
Метод сжатия : С потерями
Размер потока : 297 Мбайт (6%)
Default : Да
Forced : Нет

pb.wtf



Скачать Мастер Z: Наследие Ип Мана через торрент https://a.radikal.ru/a14/1903/1a/c4f2a627655a.jpg Скачать фильм Мастер Z: Наследие Ип Мана через торрент бесплантно в хорошем качестве Описание: После поражения от Ип Мана Чун Тинь-Чи решает исправиться и вести тихую мирную жизнь, но зло само нарывается на ... 9.7 10 15
Торрент: Зарегистрирован [2019-03-13 15:16] · скачан: 251 раз
Статус: T временная
Размер: 4.91 GB
Как cкачать? Как скачать Мастер Z: Наследие Ип Мана через торрент | qTorrent

% Раздел Тема Автор DL S | L
T Фильмы (мультфильмы) cо спонсором показа (Новинки AVI/MKV) [ 4.37 GB ] Мастер Z: Наследие Ип Мана / Cheung Tin-Chi [2018 WEB-DL 720p] MVO [@MUZOBOZ@] bober100 Скачать
3 | 0
T Фильмы (мультфильмы) cо спонсором показа (Новинки AVI/MKV) [ 1.46 GB ] Мастер Z: Наследие Ип Мана / Cheung Tin-Chi [2018 WEB-DLRip] MVO [@MUZOBOZ@] bober100 Скачать
2 | 0

28-11-2019 20:33  

Отключить всю рекламу на сайте

13-03-2019 15:28 Мастер Z: Наследие Ип Мана Скачать торрент  

.... .....подожду яйцерезку!!!pb.wtf



17-03-2019 15:39 Мастер Z: Наследие Ип Мана Скачать торрент  

"Это" вообще от создателей Ип-Мана? Фильм про историческую личность? Чет актер не колоритный((( Такую франшизу в утиль, кто смотрел?pb.wtf



18-03-2019 15:00 Мастер Z: Наследие Ип Мана Скачать торрент  

......зачем Китаю атомное оружие, у них-же есть наследники Ип Мана-ёпть...))pb.wtf



19-03-2019 01:25 Мастер Z: Наследие Ип Мана Скачать торрент  

мать вашу что за говно что за полеты в стиле Холь гинь дона я дума что уже 2019 а не 80тыеpb.wtf



    Дорогой пользователь! Огромная просьба, поблагодарите релизера, оцените раздачу и оставьте свои комментарий, если Вы скачали Мастер Z: Наследие Ип Мана через торрент бесплатно! Внесите свою лепту в развитие PiratBit!
    Комментировать посты могут только пользователи прошедшие не сложную регистрацию
    Показать сообщения:    

    Мастер Z: Наследие Ип Мана через торрент
    Скачать бесплатно Мастер Z: Наследие Ип Мана
    Мастер Z: Наследие Ип Мана скачать торрент
    Мастер Z: Наследие Ип Мана смотреть онлайн
    Cкачать фильм Мастер Z: Наследие Ип Мана бесплатно
    Мастер Z: Наследие Ип Мана скачать торрент в хорошем качестве
    Мастер Z: Наследие Ип Мана смотреть онлайн бесплатно в хорошем качестве


    Вы не можете начинать темы
    Вы не можете отвечать на сообщения
    Вы не можете редактировать свои сообщения
    Вы не можете удалять свои сообщения
    Вы не можете голосовать в опросах
    Вы не можете прикреплять файлы к сообщениям
    Вы можете скачивать файлы