Ссылка на приватное зеркало всего за 1$. Внимание количество ограничено!!!

OK

1+1

iTunes

мы

OK

1

WEB-DLRip

Джокер

Пифагор

Ведьмак / The Witcher сериал

Лицензия

ПШазам

ОК

Оно 2

iTunes

30
pack

Вам бонус

ВАЖНО

!!Акция!!

Alien_RageХит недели

RePack

Resident Evil 21

ИГРА 18+

pack

RePack

jed

RePack

fifa19

RePack

Assassins Creed: Odyssey

RePack

NEED FOR SPEED™ PAYBACK

4 сезон

9 сезон

Бесстыжие 9 сезон

Все сериалы

все сериалы на PB.wtf

RePack

FAR CRY 5
  

Все в твоих руках / Au bout des doigts (Людовик Бернард) [2018, драма, комедия, WEB-DL 720p] MVO ["Синема УС"] pb.wtf

Все в твоих руках через торрент pb.wtf

Размер: 4.25 GB | Добавлен: 10 мес. назад | Торрент скачан:32 раза
Скачать  

13-03-2019 15:58 Все в твоих руках Скачать торрент  

Все в твоих руках / Au bout des doigts Год выпуска: 2018
Страна: Франция, Бельгия
Жанр: драма, комедия
Продолжительность: 01:46:12
Перевод: Любительский (многоголосый) | "Синема УС"
Субтитры: отсутствуют

Режиссер: Людовик Бернард

rating

В ролях:

Кристин Скотт Томас, Ламбер Вильсон, Каридья Туре, Жюль Беншетри, Андре Маркон, Ванесса Дэвид, Мишель Йонас, Ксавьер Гелфи, Эльза Лепуавр

Описание:

У Матье Малински был секрет - его музыка. Он жил на окраине Парижа и не рассказывал о нем своим друзьям. Участие в мелких кражах почти довело его до тюрьмы. Но он встретил директора Парижской Консерватории, и тот предложил ему альтернативу.

Качество: WEB-DL 720p
Формат: MKV

Видео: h.264,5 336 Кбит/с, 1280x536
Аудио#1: Русский, (AC3, 2 ch, 384 Кбит/с)
скриншот  скриншот  скриншот  

Общее
Уникальный идентификатор : 210040025202909157958618661738204883180 (0x9E043CC6A09BC4AA9FADFC9CA32BE8EC)
Полное имя : D:\Au.Bout.Des.Doigts.2018.P.WEB-DL.72Op.mkv
Формат : Matroska
Версия формата : Version 2
Размер файла : 4,25 Гбайт
Продолжительность : 1 ч. 46 м.
Режим общего битрейта : Переменный
Общий поток : 5722 Кбит/сек
Дата кодирования : UTC 2019-03-13 10:38:42
Программа кодирования : mkvmerge v8.3.0 ('Over the Horizon') 64bit
Библиотека кодирования : libebml v1.3.1 + libmatroska v1.4.2

Видео
Идентификатор : 1
Формат : AVC
Формат/Информация : Advanced Video Codec
Профиль формата : High@L4.1
Параметр CABAC формата : Да
Параметр RefFrames формата : 4 кадра
Идентификатор кодека : V_MPEG4/ISO/AVC
Продолжительность : 1 ч. 46 м.
Вид битрейта : Переменный
Битрейт : 5336 Кбит/сек
Максимальный битрейт : 6000 Кбит/сек
Ширина : 1280 пикселей
Высота : 538 пикселей
Соотношение сторон : 2,40:1
Режим частоты кадров : Постоянный
Частота кадров : 23,976 (24000/1001) кадра/сек
Стандарт вещания : Component
Цветовое пространство : YUV
Субдискретизация насыщенности : 4:2:0
Битовая глубина : 8 бит
Тип развёртки : Прогрессивная
Бит/(Пиксели*Кадры) : 0.316
Размер потока : 3,88 Гбайт (91%)
Default : Да
Forced : Нет
Цветовой диапазон : Limited
Основные цвета : BT.709
Характеристики трансфера : BT.709
Коэффициенты матрицы : BT.709

Аудио
Идентификатор : 2
Формат : AC-3
Формат/Информация : Audio Coding 3
Расширение режима : CM (complete main)
Параметр Endianness формата : Big
Идентификатор кодека : A_AC3
Продолжительность : 1 ч. 46 м.
Вид битрейта : Постоянный
Битрейт : 384 Кбит/сек
Каналы : 2 канала
Расположение каналов : Front: L R
Частота : 48,0 КГц
Частота кадров : 31,250 кадров/сек (1536 spf)
Метод сжатия : С потерями
Размер потока : 292 Мбайт (7%)
Default : Да
Forced : Нет

pb.wtf



Скачать Все в твоих руках через торрент https://c.radikal.ru/c13/1903/ea/60abd7216814.jpg Скачать фильм Все в твоих руках через торрент бесплантно в хорошем качестве Описание: У Матье Малински был секрет - его музыка. Он жил на окраине Парижа и не рассказывал о нем своим друзьям. Участие в мелких кражах ... 10 10 6
Торрент: Зарегистрирован [2019-03-13 15:58] · скачан: 32 раз
Статус: T временная
Размер: 4.25 GB
Как cкачать? Как скачать Все в твоих руках через торрент | qTorrent

% Раздел Тема Автор DL S | L
T Фильмы (мультфильмы) cо спонсором показа (Новинки AVI/MKV) [ 1.37 GB ] Все в твоих руках / Au bout des doigts [2018 WEB-DLRip] MVO ["Синема УС"] bober100 Скачать
2 | 0

28-11-2019 20:33  

Отключить всю рекламу на сайте

    Дорогой пользователь! Огромная просьба, поблагодарите релизера, оцените раздачу и оставьте свои комментарий, если Вы скачали Все в твоих руках через торрент бесплатно! Внесите свою лепту в развитие PiratBit!
    Комментировать посты могут только пользователи прошедшие не сложную регистрацию
    Показать сообщения:    

    Все в твоих руках через торрент
    Скачать бесплатно Все в твоих руках
    Все в твоих руках скачать торрент
    Все в твоих руках смотреть онлайн
    Cкачать фильм Все в твоих руках бесплатно
    Все в твоих руках скачать торрент в хорошем качестве
    Все в твоих руках смотреть онлайн бесплатно в хорошем качестве


    Вы не можете начинать темы
    Вы не можете отвечать на сообщения
    Вы не можете редактировать свои сообщения
    Вы не можете удалять свои сообщения
    Вы не можете голосовать в опросах
    Вы не можете прикреплять файлы к сообщениям
    Вы можете скачивать файлы