новый адрес
Ссылка на приватное зеркало всего за 1$. Внимание количество ограничено!!!

iTunes

1+1

iTunes

мы

WEB-DL

1

iTunes

Чернобыль

iTunes

Ральф против интернета

Лицензия

ПШазам

Лицензия

Оно 2

Лицензия

30
pack

Вам бонус

ВАЖНО

!!Акция!!

Alien_RageХит недели

RePack

Resident Evil 21

ИГРА 18+

pack

RePack

jed

!!Акция!!

Alien_Rage

RePack

fifa19

RePack

Assassins Creed: Odyssey

RePack

NEED FOR SPEED™ PAYBACK

3 сезон

9 сезон

Бесстыжие 9 сезон

Все сериалы

все сериалы на PB.wtf

RePack

FAR CRY 5
Ребята, катастрофически не хватает 1900р. для оплаты серверов за Октябрь (всвязи с блокировками трафик упал в 3 раза), 1-2р., выручайте.
  

Не уходи / Don't Go (Дэвид Глисон) [2018, Детектив, BDRip-AVC] MVO [HDRezka Studio] pb.wtf

Не уходи через торрент pb.wtf

Размер: 1.64 GB | Добавлен: 8 мес. назад | Торрент скачан:25 раз
Скачать  

13-03-2019 17:15 Не уходи Скачать торрент  

Не уходи / Don't Go Год выпуска: 2018
Страна: Ирландия
Жанр: Детектив
Продолжительность: 01:31:45
Перевод: Профессиональный (многоголосый) | HDRezka Studio
Субтитры: Английские (полные, SDH)

Режиссер: Дэвид Глисон

rating

В ролях:

Стивен Дорфф, Мелисса Джордж, Саймон Делани, Эйвин МакГиннити, Грейс Фаррел, Гэвин О'Коннор, Лалор Родди, Дес Кейв, Люк Гриффин, Шарлотта Брэдли

Описание:

Бен опустошён смертью своей дочери в ужасной катастрофе. Ему постоянно снится сон, в котором его дочь жива и он может общаться с ней. Вскоре Бен перестает различать грань между сном и явью и всё чаще уходит в призрачный мир по ту сторону реальности.

Качество: BDRip-AVC
Формат: MKV

Видео: 1024x428 (2.40:1), 23,976 fps, x264 ~1 928 kbps avg, 0.183 bit/pixel
Аудио#1: 48 kHz, AC3 Dolby Digital, 2 (L,R) ch, ~192.00 kbps avg | RUS (HDRezka Studio)
Аудио#2: 48 kHz, AC3 Dolby Digital, 3/2 (L,C,R,l,r) + LFE ch, ~448.00 kbps avg | ENG
скриншот  скриншот  скриншот  скриншот  скриншот  

Общее
Уникальный идентификатор : 277988710133644803037185692262670020075 (0xD122AD9846A65C272A92A5C497502DEB)
Полное имя : F:OlLanDGroupDont.Go.2018.BDRip(AVC).OllanDGroup.mkv
Формат : Matroska
Версия формата : Version 4 / Version 2
Размер файла : 1,64 Гбайт
Продолжительность : 1 ч. 31 м.
Общий поток : 2566 Кбит/сек
Название фильма : Don't Go (2018) #TorpedoUK#
Дата кодирования : UTC 2019-03-13 16:40:08
Программа кодирования : mkvmerge v29.0.0 ('Like It Or Not') 64-bit
Библиотека кодирования : libebml v1.3.6 + libmatroska v1.4.9
IMDB : tt3339680
TMDB : movie/542202

Видео
Идентификатор : 1
Формат : AVC
Формат/Информация : Advanced Video Codec
Профиль формата : High@L4.1
Параметр CABAC формата : Да
Параметр ReFrames формата : 10 кадров
Идентификатор кодека : V_MPEG4/ISO/AVC
Продолжительность : 1 ч. 31 м.
Битрейт : 1928 Кбит/сек
Ширина : 1024 пикселя
Высота : 428 пикселей
Соотношение сторон : 2,40:1
Режим частоты кадров : Постоянный
Частота кадров : 23,976 (24000/1001) кадра/сек
Цветовое пространство : YUV
Субдискретизация насыщенности : 4:2:0
Битовая глубина : 8 бит
Тип развёртки : Прогрессивная
Бит/(Пиксели*Кадры) : 0.183
Размер потока : 1,23 Гбайт (75%)
Библиотека кодирования : x264 core 146 r2538 121396c
Настройки программы : cabac=1 / ref=10 / deblock=1:-3:-3 / analyse=0x3:0x113 / me=umh / subme=11 / psy=1 / psy_rd=0.99:0.04 / mixed_ref=1 / me_range=48 / chroma_me=1 / trellis=2 / 8x8dct=1 / cqm=0 / deadzone=21,11 / fast_pskip=1 / chroma_qp_offset=-3 / threads=6 / lookahead_threads=1 / sliced_threads=0 / nr=0 / decimate=1 / interlaced=0 / bluray_compat=0 / constrained_intra=0 / bframes=11 / b_pyramid=2 / b_adapt=2 / b_bias=0 / direct=3 / weightb=1 / open_gop=0 / weightp=2 / keyint=240 / keyint_min=23 / scenecut=40 / intra_refresh=0 / rc_lookahead=40 / rc=2pass / mbtree=0 / bitrate=1928 / ratetol=1.0 / qcomp=0.60 / qpmin=0 / qpmax=69 / qpstep=4 / cplxblur=20.0 / qblur=0.5 / vbv_maxrate=50000 / vbv_bufsize=62500 / nal_hrd=none / filler=0 / ip_ratio=1.40 / pb_ratio=1.30 / aq=1:1.00
Язык : English
Default : Да
Forced : Нет

Аудио #1
Идентификатор : 2
Формат : AC-3
Формат/Информация : Audio Coding 3
Расширение режима : CM (complete main)
Параметр Endianness формата : Big
Идентификатор кодека : A_AC3
Продолжительность : 1 ч. 31 м.
Вид битрейта : Постоянный
Битрейт : 192 Кбит/сек
Каналы : 2 канала
Расположение каналов : Front: L R
Частота : 48,0 КГц
Частота кадров : 31,250 кадров/сек (1536 spf)
Битовая глубина : 16 бит
Метод сжатия : С потерями
Размер потока : 126 Мбайт (7%)
Заголовок : MVO [HDRezka Studio]
Язык : Russian
Default : Да
Forced : Нет

Аудио #2
Идентификатор : 3
Формат : AC-3
Формат/Информация : Audio Coding 3
Расширение режима : CM (complete main)
Параметр Endianness формата : Big
Идентификатор кодека : A_AC3
Продолжительность : 1 ч. 31 м.
Вид битрейта : Постоянный
Битрейт : 448 Кбит/сек
Каналы : 6 каналов
Расположение каналов : Front: L C R, Side: L R, LFE
Частота : 48,0 КГц
Частота кадров : 31,250 кадров/сек (1536 spf)
Битовая глубина : 16 бит
Метод сжатия : С потерями
Размер потока : 294 Мбайт (17%)
Заголовок : [Original]
Язык : English
Default : Нет
Forced : Нет

Текст #1
Идентификатор : 4
Формат : UTF-8
Идентификатор кодека : S_TEXT/UTF8
Идентификатор кодека/Информация : UTF-8 Plain Text
Продолжительность : 1 ч. 26 м.
Битрейт : 39 бит/сек
Count of elements : 877
Размер потока : 24,9 Кбайт (0%)
Заголовок : Full
Язык : English
Default : Нет
Forced : Нет

Текст #2
Идентификатор : 5
Формат : UTF-8
Идентификатор кодека : S_TEXT/UTF8
Идентификатор кодека/Информация : UTF-8 Plain Text
Продолжительность : 1 ч. 30 м.
Битрейт : 42 бит/сек
Count of elements : 1107
Размер потока : 28,4 Кбайт (0%)
Заголовок : SDH
Язык : English
Default : Нет
Forced : Нет

Меню
00:00:00.000 : en:Chapter 1
00:06:01.194 : en:Chapter 2
00:12:02.430 : en:Chapter 3
00:18:12.383 : en:Chapter 4
00:25:02.835 : en:Chapter 5
00:32:26.319 : en:Chapter 6
00:39:51.723 : en:Chapter 7
00:47:36.771 : en:Chapter 8
00:55:33.622 : en:Chapter 9
01:03:37.439 : en:Chapter 10
01:11:01.466 : en:Chapter 11
01:19:24.551 : en:Chapter 12

pb.wtf



Скачать Не уходи через торрент https://i109.fastpic.ru/big/2019/0313/36/62419f763e33cc598b7fc6a05a262a36.jpg Скачать фильм Не уходи через торрент бесплантно в хорошем качестве Описание: Бен опустошён смертью своей дочери в ужасной катастрофе. Ему постоянно снится сон, в котором его дочь жива и он может общаться с ... 10 10 2
Торрент: Зарегистрирован [2019-03-13 17:15] · скачан: 25 раз
Статус: T временная
Размер: 1.64 GB
Как cкачать? Как скачать Не уходи через торрент | qTorrent

28-11-2019 20:33  

Отключить всю рекламу на сайте

14-03-2019 03:52 Не уходи Скачать торрент  

скучный фильмpb.wtf



    Дорогой пользователь! Огромная просьба, поблагодарите релизера, оцените раздачу и оставьте свои комментарий, если Вы скачали Не уходи через торрент бесплатно! Внесите свою лепту в развитие PiratBit!
    Комментировать посты могут только пользователи прошедшие не сложную регистрацию
    Показать сообщения:    

    Не уходи через торрент
    Скачать бесплатно Не уходи
    Не уходи скачать торрент
    Не уходи смотреть онлайн
    Cкачать фильм Не уходи бесплатно
    Не уходи скачать торрент в хорошем качестве
    Не уходи смотреть онлайн бесплатно в хорошем качестве


    Вы не можете начинать темы
    Вы не можете отвечать на сообщения
    Вы не можете редактировать свои сообщения
    Вы не можете удалять свои сообщения
    Вы не можете голосовать в опросах
    Вы не можете прикреплять файлы к сообщениям
    Вы можете скачивать файлы