Ссылка на приватное зеркало всего за 1$. Внимание количество ограничено!!!

OK

1+1

iTunes

мы

OK

1

WEB-DLRip

Джокер

Пифагор

Ведьмак / The Witcher сериал

Лицензия

ПШазам

ОК

Оно 2

iTunes

30
pack

Вам бонус

ВАЖНО

!!Акция!!

Alien_RageХит недели

RePack

Resident Evil 21

ИГРА 18+

pack

RePack

jed

!!Акция!!

Alien_Rage

RePack

fifa19

RePack

Assassins Creed: Odyssey

RePack

NEED FOR SPEED™ PAYBACK

4 сезон

9 сезон

Бесстыжие 9 сезон

Все сериалы

все сериалы на PB.wtf

RePack

FAR CRY 5
  

Путешествие 2: Таинственный остров / Journey 2: The Mysterious Island (Брэд Пейтон) [2012 г., фантастика, фэнтези, боевик, комедия, приключения, семейный, BDRip 720p / 60 FPS, Дубляж Лицензия] pb.wtf

Путешествие 2: Таинственный остров через торрент pb.wtf

Размер: 4.24 GB | Добавлен: 10 мес. назад | Торрент скачан:106 раз
Скачать  

13-03-2019 17:45 Путешествие 2: Таинственный остров Скачать торрент  

Путешествие 2: Таинственный остров / Journey 2: The Mysterious Island
Год выпуска: 2012
Страна: США
Жанр: фантастика, фэнтези, боевик, комедия, приключения, семейный
Продолжительность: 01:34:11
Перевод: Дубляж Лицензия

Режиссер: Брэд Пейтон

Бюджет: $79 000 000
Премьера в мире: 19 января 2012



В ролях: Дуэйн Джонсон, Джош Хатчерсон, Ванесса Энн Хадженс, Майкл Кейн, Луис Гусман,
Кристин Дэвис, Анна Колвелл, Стивен Кодилл, Брэнском Ричмонд, Уолтер Бэнксон

Описание: На этот раз Шон Андерсон получает закодированный сигнал с просьбой о помощи, причем с загадочного острова, из места, где никакого острова и быть не может. Там обитают странные формы жизни, скрываются горы золота, смертоносные вулканы и не одна ошеломляющая тайна. Отчиму Шона, не сумевшему остановить его, ничего не остается, как тоже присоединиться к поискам. Вместе с пилотом вертолета и его прекрасной и решительной дочерью им предстоит найти остров, спасти его одинокого обитателя и немедленно покинуть это место, прежде чем землетрясение скроет остров под водой и похоронит навеки его сокровища.

Качество: BDRip 720p / 60 FPS
Формат: MKV
Видео кодек: H.264
Аудио кодек: AC3
Видео: x264, 1280 x 720 (16:9), 5932 kbps, 60,000 fps, ( 0.107bpp)
Аудио#1: AC-3, 48.0 KHz, 6 ch, 384 Kbps (Russian)



скриншот   скриншот   скриншот   скриншот   скриншот  Автор рипа: slaventi-69
Общее
Уникальный идентификатор : 248964009464660370861904710309630196954 (0xBB4CB95DFADB8B93B55BD8DD48B83CDA)
Полное имя : D:\Journey.2.The.Mysterious.Island.(2012).BDRip.720p.(60 Fps).mkv
Формат : Matroska
Версия формата : Version 4 / Version 2
Размер файла : 4,24 Гбайт
Продолжительность : 1 ч. 34 м.
Общий поток : 6444 Кбит/сек
Название фильма : Путешествие 2: Таинственный остров / Journey 2: The Mysterious Island (2012) BDRip 720p (60 Fps)
Дата кодирования : UTC 2019-03-13 16:26:36
Программа кодирования : mkvmerge v12.0.0 ('Trust / Lust') 64bit
Библиотека кодирования : libebml v1.3.4 + libmatroska v1.4.5
DURATION : 01:34:05.056000000
NUMBER_OF_FRAMES : 176408
NUMBER_OF_BYTES : 270962688
_STATISTICS_WRITING_APP : mkvmerge v12.0.0 ('Trust / Lust') 64bit
_STATISTICS_WRITING_DATE_UTC : 2019-03-13 16:26:36
_STATISTICS_TAGS : BPS DURATION NUMBER_OF_FRAMES NUMBER_OF_BYTES

Видео
Идентификатор : 1
Формат : AVC
Формат/Информация : Advanced Video Codec
Профиль формата : High@L4.1
Параметр CABAC формата : Да
Параметр ReFrames формата : 4 кадра
Идентификатор кодека : V_MPEG4/ISO/AVC
Продолжительность : 1 ч. 34 м.
Битрейт : 5932 Кбит/сек
Ширина : 1280 пикселей
Высота : 720 пикселей
Соотношение сторон : 16:9
Режим частоты кадров : Постоянный
Частота кадров : 60,000 кадров/сек
Цветовое пространство : YUV
Субдискретизация насыщенности : 4:2:0
Битовая глубина : 8 бит
Тип развёртки : Прогрессивная
Бит/(Пиксели*Кадры) : 0.107
Размер потока : 3,90 Гбайт (92%)
Заголовок : slaventi-69 ( R.G. HD-Films | 60 fps )
Библиотека кодирования : x264 core 130 r2273 b3065e6
Настройки программы : cabac=1 / ref=4 / deblock=1:0:0 / analyse=0x3:0x133 / me=umh / subme=9 / psy=1 / psy_rd=1.00:0.10 / mixed_ref=1 / me_range=24 / chroma_me=1 / trellis=2 / 8x8dct=1 / cqm=0 / deadzone=21,11 / fast_pskip=0 / chroma_qp_offset=-3 / threads=8 / lookahead_threads=4 / sliced_threads=0 / nr=0 / decimate=1 / interlaced=0 / bluray_compat=0 / constrained_intra=0 / bframes=4 / b_pyramid=2 / b_adapt=2 / b_bias=0 / direct=3 / weightb=1 / open_gop=0 / weightp=2 / keyint=250 / keyint_min=25 / scenecut=40 / intra_refresh=0 / rc_lookahead=50 / rc=crf / mbtree=1 / crf=18.0 / qcomp=0.60 / qpmin=0 / qpmax=69 / qpstep=4 / ip_ratio=1.40 / aq=1:1.00
Язык : English
Default : Да
Forced : Нет

Аудио
Идентификатор : 2
Формат : AC-3
Формат/Информация : Audio Coding 3
Расширение режима : CM (complete main)
Параметр Endianness формата : Big
Идентификатор кодека : A_AC3
Продолжительность : 1 ч. 34 м.
Вид битрейта : Постоянный
Битрейт : 384 Кбит/сек
Каналы : 6 каналов
Расположение каналов : Front: L C R, Side: L R, LFE
Частота : 48,0 КГц
Битовая глубина : 16 бит
Метод сжатия : С потерями
Размер потока : 258 Мбайт (6%)
Заголовок : Dub
Язык : Russian
Default : Да
Forced : Нет

pb.wtf



Скачать Путешествие 2: Таинственный остров через торрент http://i.imgur.com/nMLIAz2.jpg Скачать фильм Путешествие 2: Таинственный остров через торрент бесплантно в хорошем качестве Описание: На этот раз Шон Андерсон получает закодированный сигнал с просьбой о помощи, причем с загадочного острова, из места, где никакого ... 9.8 10 8
Торрент: Зарегистрирован [2019-03-13 17:45] · скачан: 106 раз
Статус: # сомнительно
Размер: 4.24 GB
Как cкачать? Как скачать Путешествие 2: Таинственный остров через торрент | qTorrent

% Раздел Тема Автор DL S | L
Фильмы (HD 720p, 1080p) (48-60 fps) [ 6.3 GB ] Путешествие 2: Таинственный остров / Journey 2: The Mysterious Island [2012 BDRip 720p [] 60fps от mimok mimok Скачать
1 | 0
3D Фильмы [ 10.02 GB ] Путешествие 2: Таинственный остров 3Д / Journey 2: The Mysterious Island 3D [2012 BDRip-AVC ] Half OverUnder / Верикальная анаморфная стереопара Mr. Freeman Скачать
2 | 0
3D Фильмы [ 13.62 GB ] Путешествие 2: Таинственный остров / Journey 2: The Mysterious Island [2012 BDRip 1080p 3D + Оригинал] Горизонтальная анаморфная стереопара 3D vadson993 Скачать
1 | 0
Фильмы (Blu-ray, BD-Remux, HDDVD) [ 16.79 GB ] Путешествие 2: Таинственный остров / Journey 2: The Mysterious Island [2012 Blu-Ray Remux DUB ] F.U. Скачать
1 | 0
Фильмы [HD 720p, 1080p] (Хороший звук DUB, MVO) [ 5.6 GB ] Путешествие 2: Таинственный остров / Journey 2: The Mysterious Island [2012 BDRip 720p лицензия] Ke$h@ Скачать
1 | 0
3D Фильмы [ 9.97 GB ] Путешествие 2: Таинственный остров / Journey 2: The Mysterious Island [2012 BDRip DUB + Оригинал+Укр| 3D-Video / D] ~Relizer~ Скачать
1 | 0
3D Фильмы [ 3.44 GB ] Путешествие 2: Таинственный остров 3D / Journey 2: The Mysterious Island 3D [2012 BDRip-AVC] Anaglyph red'cyan slaventi-69 Скачать
1 | 0

28-11-2019 20:33  

Отключить всю рекламу на сайте

    Дорогой пользователь! Огромная просьба, поблагодарите релизера, оцените раздачу и оставьте свои комментарий, если Вы скачали Путешествие 2: Таинственный остров через торрент бесплатно! Внесите свою лепту в развитие PiratBit!
    Комментировать посты могут только пользователи прошедшие не сложную регистрацию
    Показать сообщения:    

    Путешествие 2: Таинственный остров через торрент
    Скачать бесплатно Путешествие 2: Таинственный остров
    Путешествие 2: Таинственный остров скачать торрент
    Путешествие 2: Таинственный остров смотреть онлайн
    Cкачать фильм Путешествие 2: Таинственный остров бесплатно
    Путешествие 2: Таинственный остров скачать торрент в хорошем качестве
    Путешествие 2: Таинственный остров смотреть онлайн бесплатно в хорошем качестве


    Вы не можете начинать темы
    Вы не можете отвечать на сообщения
    Вы не можете редактировать свои сообщения
    Вы не можете удалять свои сообщения
    Вы не можете голосовать в опросах
    Вы не можете прикреплять файлы к сообщениям
    Вы можете скачивать файлы