Ссылка на приватное зеркало всего за 1$. Внимание количество ограничено!!!

OK

1+1

iTunes

мы

OK

1

WEB-DLRip

Джокер

Пифагор

Ведьмак / The Witcher сериал

iTunes

ПШазам

ОК

Оно 2

iTunes

30
pack

Вам бонус

ВАЖНО

!!Акция!!

Alien_RageХит недели

RePack

Resident Evil 21

ИГРА 18+

pack

RePack

jed

RePack

fifa19

RePack

Assassins Creed: Odyssey

RePack

NEED FOR SPEED™ PAYBACK

4 сезон

9 сезон

Бесстыжие 9 сезон

Все сериалы

все сериалы на PB.wtf

RePack

FAR CRY 5
  

Трудный путь / The Hard Way (Киони Ваксман) [2019, боевик, WEB-DL 720p] MVO ["Синема УС"] pb.wtf

Трудный путь через торрент pb.wtf

Раздают: 1 [ 0 KB/s ]
Размер: 3.76 GB | Добавлен: 10 мес. назад | Торрент скачан:93 раза
Скачать  

13-03-2019 19:17 Трудный путь Скачать торрент  

Трудный путь / The Hard Way Год выпуска: 2019
Страна: США
Жанр: боевик
Продолжительность: 01:34:57
Перевод: Любительский (многоголосый) | "Синема УС"
Субтитры: отсутствуют

Режиссер: Киони Ваксман

rating

В ролях:

Рэнди Кутюр, Люк Госс, Джордж Ремис, Майкл Джей Уайт, Мадалина Анеа, Грант Кэмпбелл, Овидиу Никулеску

Описание:

Узнав, что брат погиб на миссии в Румынии, бывший солдат объединяется с двумя союзниками, чтобы выследить загадочного врага и отомстить...

Качество: WEB-DL 720p
Формат: MKV

Видео: h.264, 5 280 Кбит/с, 1280x720
Аудио: Русский, (AC3, 2 ch, 384 Кбит/с)
скриншот  скриншот  скриншот  

Общее
Уникальный идентификатор : 199730643303090273240791075303748235769 (0x9642B90139247CAA870BB62F6EDF71F9)
Полное имя : D:\The.Hard.Way.2019.P.WEB-DL.72Op.mkv
Формат : Matroska
Версия формата : Version 2
Размер файла : 3,76 Гбайт
Продолжительность : 1 ч. 34 м.
Режим общего битрейта : Переменный
Общий поток : 5666 Кбит/сек
Дата кодирования : UTC 2019-03-06 12:17:30
Программа кодирования : mkvmerge v8.3.0 ('Over the Horizon') 64bit
Библиотека кодирования : libebml v1.3.1 + libmatroska v1.4.2

Видео
Идентификатор : 1
Формат : AVC
Формат/Информация : Advanced Video Codec
Профиль формата : High@L4.1
Параметр CABAC формата : Да
Параметр RefFrames формата : 4 кадра
Идентификатор кодека : V_MPEG4/ISO/AVC
Продолжительность : 1 ч. 34 м.
Вид битрейта : Переменный
Битрейт : 5280 Кбит/сек
Максимальный битрейт : 6000 Кбит/сек
Ширина : 1280 пикселей
Высота : 720 пикселей
Соотношение сторон : 16:9
Режим частоты кадров : Постоянный
Частота кадров : 23,976 (24000/1001) кадра/сек
Стандарт вещания : Component
Цветовое пространство : YUV
Субдискретизация насыщенности : 4:2:0
Битовая глубина : 8 бит
Тип развёртки : Прогрессивная
Бит/(Пиксели*Кадры) : 0.234
Размер потока : 3,43 Гбайт (91%)
Default : Да
Forced : Нет
Цветовой диапазон : Limited
Основные цвета : BT.709
Характеристики трансфера : BT.709
Коэффициенты матрицы : BT.709

Аудио
Идентификатор : 2
Формат : AC-3
Формат/Информация : Audio Coding 3
Расширение режима : CM (complete main)
Параметр Endianness формата : Big
Идентификатор кодека : A_AC3
Продолжительность : 1 ч. 34 м.
Вид битрейта : Постоянный
Битрейт : 384 Кбит/сек
Каналы : 2 канала
Расположение каналов : Front: L R
Частота : 48,0 КГц
Частота кадров : 31,250 кадров/сек (1536 spf)
Метод сжатия : С потерями
Размер потока : 261 Мбайт (7%)
Default : Да
Forced : Нет

pb.wtf



Скачать Трудный путь через торрент https://c.radikal.ru/c38/1903/38/b4a777bddc0d.jpg Скачать фильм Трудный путь через торрент бесплантно в хорошем качестве Описание: Узнав, что брат погиб на миссии в Румынии, бывший солдат объединяется с двумя союзниками, чтобы выследить загадочного врага и ... 9.8 10 5
Торрент: Зарегистрирован [2019-03-13 19:17] · скачан: 93 раз
Статус: T временная
Размер: 3.76 GB
Как cкачать? Как скачать Трудный путь через торрент | qTorrent

% Раздел Тема Автор DL S | L
T Фильмы (мультфильмы) cо спонсором показа (Новинки AVI/MKV) [ 1.37 GB ] Трудный путь / The Hard Way [2019 WEB-DLRip] MVO ["Синема УС"] bober100 Скачать
1 | 0

28-11-2019 20:33  

Отключить всю рекламу на сайте


    Дорогой пользователь! Огромная просьба, поблагодарите релизера, оцените раздачу и оставьте свои комментарий, если Вы скачали Трудный путь через торрент бесплатно! Внесите свою лепту в развитие PiratBit!
    Комментировать посты могут только пользователи прошедшие не сложную регистрацию
    Показать сообщения:    

    Трудный путь через торрент
    Скачать бесплатно Трудный путь
    Трудный путь скачать торрент
    Трудный путь смотреть онлайн
    Cкачать фильм Трудный путь бесплатно
    Трудный путь скачать торрент в хорошем качестве
    Трудный путь смотреть онлайн бесплатно в хорошем качестве


    Вы не можете начинать темы
    Вы не можете отвечать на сообщения
    Вы не можете редактировать свои сообщения
    Вы не можете удалять свои сообщения
    Вы не можете голосовать в опросах
    Вы не можете прикреплять файлы к сообщениям
    Вы можете скачивать файлы