Ссылка на приватное зеркало всего за 1$. Внимание количество ограничено!!!

OK

1+1

iTunes

мы

OK

1

WEB-DLRip

Джокер

Пифагор

Ведьмак / The Witcher сериал

iTunes

ПШазам

ОК

Оно 2

iTunes

30
pack

Вам бонус

ВАЖНО

!!Акция!!

Alien_RageХит недели

RePack

Resident Evil 21

ИГРА 18+

pack

RePack

jed

RePack

fifa19

RePack

Assassins Creed: Odyssey

RePack

NEED FOR SPEED™ PAYBACK

4 сезон

9 сезон

Бесстыжие 9 сезон

Все сериалы

все сериалы на PB.wtf

RePack

FAR CRY 5
  

Призрак Беверли Хиллз / Beverly Hills Ghost (Кемми Моран) [2018, комедия, WEB-DL 720p] MVO ["Синема УС"] pb.wtf

Призрак Беверли Хиллз через торрент pb.wtf

Размер: 4.18 GB | Добавлен: 10 мес. назад | Торрент скачан:47 раз
Скачать  

13-03-2019 19:48 Призрак Беверли Хиллз Скачать торрент  

Призрак Беверли Хиллз / Beverly Hills GhostГод выпуска: 2018
Страна: США
Жанр: комедия
Продолжительность: 01:45:21
Перевод: Любительский (многоголосый) | "Синема УС"
Субтитры: отсутствуют

Режиссер: Кемми Моран

rating

В ролях:

Джинни Глейсер, Декер Садовски, Роннель Рикардо Пархам, Шон Моран, Монтана Мэннинг, Джессика Тейлор Хайд, Виктория Туркан, Клейтон Брайт, Мелисса Сьюзэн Кон, Джулиан Мартинес

Описание:

У Мисси Палмер, было все - деньги, красота и популярность, пока ее не убили. Теперь единственный человек, который может ее видеть, это переехавшая в ее дом Сари, ботаник из Нью-Джерси. Мисси превращает Сари в красавицу и помогает ей подружиться со своими богатыми и известными друзьями и присоединиться к рок-группе ее парня, чтобы она могла помочь ей выяснить, кто же ее убил. Если Сари не поймет, кто это сделал, то скоро она может стать следующим призраком Беверли Хиллз.

Качество: WEB-DL 720p
Формат: MKV

Видео: h.264,5 277 Кбит/с, 1280x720
Аудио#1: Русский, (AC3, 2 ch, 384 Кбит/с)
скриншот  скриншот  скриншот  

Общее
Уникальный идентификатор : 196781324588501513864540841058731543961 (0x940AB45D8710D94ABD728717D6C3CD99)
Полное имя : D:\BeverlyHillsGhost.2018.P.WEB-DL.72Op.mkv
Формат : Matroska
Версия формата : Version 2
Размер файла : 4,18 Гбайт
Продолжительность : 1 ч. 45 м.
Режим общего битрейта : Переменный
Общий поток : 5663 Кбит/сек
Дата кодирования : UTC 2019-03-06 12:21:29
Программа кодирования : mkvmerge v8.3.0 ('Over the Horizon') 64bit
Библиотека кодирования : libebml v1.3.1 + libmatroska v1.4.2

Видео
Идентификатор : 1
Формат : AVC
Формат/Информация : Advanced Video Codec
Профиль формата : High@L4.1
Параметр CABAC формата : Да
Параметр RefFrames формата : 4 кадра
Идентификатор кодека : V_MPEG4/ISO/AVC
Продолжительность : 1 ч. 45 м.
Вид битрейта : Переменный
Битрейт : 5277 Кбит/сек
Максимальный битрейт : 6000 Кбит/сек
Ширина : 1280 пикселей
Высота : 720 пикселей
Соотношение сторон : 16:9
Режим частоты кадров : Постоянный
Частота кадров : 23,976 (24000/1001) кадра/сек
Стандарт вещания : Component
Цветовое пространство : YUV
Субдискретизация насыщенности : 4:2:0
Битовая глубина : 8 бит
Тип развёртки : Прогрессивная
Бит/(Пиксели*Кадры) : 0.234
Размер потока : 3,81 Гбайт (91%)
Default : Да
Forced : Нет
Цветовой диапазон : Limited
Основные цвета : BT.709
Характеристики трансфера : BT.709
Коэффициенты матрицы : BT.709

Аудио
Идентификатор : 2
Формат : AC-3
Формат/Информация : Audio Coding 3
Расширение режима : CM (complete main)
Параметр Endianness формата : Big
Идентификатор кодека : A_AC3
Продолжительность : 1 ч. 45 м.
Вид битрейта : Постоянный
Битрейт : 384 Кбит/сек
Каналы : 2 канала
Расположение каналов : Front: L R
Частота : 48,0 КГц
Частота кадров : 31,250 кадров/сек (1536 spf)
Метод сжатия : С потерями
Размер потока : 290 Мбайт (7%)
Default : Да
Forced : Нет

pb.wtf



Скачать Призрак Беверли Хиллз через торрент https://c.radikal.ru/c42/1903/b0/2cb3855f39ca.jpg Скачать фильм Призрак Беверли Хиллз через торрент бесплантно в хорошем качестве Описание: У Мисси Палмер, было все - деньги, красота и популярность, пока ее не убили. Теперь единственный человек, который может ее ... 10 10 3
Торрент: Зарегистрирован [2019-03-13 19:48] · скачан: 47 раз
Статус: T временная
Размер: 4.18 GB
Как cкачать? Как скачать Призрак Беверли Хиллз через торрент | qTorrent

% Раздел Тема Автор DL S | L
T Фильмы (мультфильмы) cо спонсором показа (Новинки AVI/MKV) [ 1.37 GB ] Призрак Беверли Хиллз / Beverly Hills Ghost [2018 WEB-DLRip] MVO ["Синема УС"] bober100 Скачать
1 | 0

28-11-2019 20:33  

Отключить всю рекламу на сайте

    Дорогой пользователь! Огромная просьба, поблагодарите релизера, оцените раздачу и оставьте свои комментарий, если Вы скачали Призрак Беверли Хиллз через торрент бесплатно! Внесите свою лепту в развитие PiratBit!
    Комментировать посты могут только пользователи прошедшие не сложную регистрацию
    Показать сообщения:    

    Призрак Беверли Хиллз через торрент
    Скачать бесплатно Призрак Беверли Хиллз
    Призрак Беверли Хиллз скачать торрент
    Призрак Беверли Хиллз смотреть онлайн
    Cкачать фильм Призрак Беверли Хиллз бесплатно
    Призрак Беверли Хиллз скачать торрент в хорошем качестве
    Призрак Беверли Хиллз смотреть онлайн бесплатно в хорошем качестве


    Вы не можете начинать темы
    Вы не можете отвечать на сообщения
    Вы не можете редактировать свои сообщения
    Вы не можете удалять свои сообщения
    Вы не можете голосовать в опросах
    Вы не можете прикреплять файлы к сообщениям
    Вы можете скачивать файлы