Anonymous, доброй ночи, присоединяйтесь к нам в Telegram!, здесь всегда актуальный адрес сайта, оперативная поддержка и многое другое!

>

5.5

iTunes

7.4

iTunes

7.9

iTunes

1

7.7

1 сезон

6.8

iTunes

7.3

1 сезон

13

6.7

1 сезон

8.3

RePack

30

ULTIMATE

pack

9.9

Лицензия

ВАЖНО

ИГРА 18+

pack

7.3

RePack

MK11

7.7

RePack

jed

7.8

RePack

fifa19

8.5

RePack

RDR2

RePack

NEED FOR SPEED™ PAYBACK

4 сезон

9 сезон

Бесстыжие 9 сезон

Все сериалы

все сериалы на PB.wtf

RePack

FAR CRY 5

Anonymous, доброй ночи, мы катастрофически не успеваем собрать деньги на оплату серверов, помогите нам пожалуйста 5,10,15р., для нас важна любая помощь . В качестве благодарности мы отключим Вам всю рекламу на сайте (укажите свой ник в строку Ваше имя)!

×
  
Magnet ссылка

Мертвое озеро / Сезон: 1 / Серии: 1-8 из 8 (Роман Прыгунов) [2019, Мистика, детектив, триллер, WEB-DLRip] pb.wtf

Мертвое озеро через торрент pb.wtf

Раздают: 2 [ 2 KB/s ]
Размер: 4.69 GB | Добавлен: 2 года 5 мес. назад | Торрент скачан:640 раз
Смотреть онлайн Мертвое озеро | Скачать    Ребята, помогите собрать деньги на оплату серверов!!!

14-03-2019 00:30 Мертвое озеро Скачать торрент  

Мертвое озеро Год выпуска: 2019
Страна: Россия
Жанр: Мистика, детектив, триллер
Продолжительность: ~ 00:50:00
Субтитры: отсутствуют

Режиссер: Роман Прыгунов



В ролях:

Евгений Цыганов, Павел Табаков, Александра Ребенок, Александр Робак, Андрей Смоляков, Виктор Хориняк, Павел Ворожцов, Лев Прыгунов, Тимофей Трибунцев, Полина Кутепова, Ксения Кутепова, Надежда Михалкова, Кристина Казинская, Михаил Гаврилов (II), Екатерина Семёнова, Мария Карпова, Мария Перн, Кирилл Полухин

Описание:

Владелец урановых родников Юрий Кобрин — царь и Бог в родном Чангадане. Его бизнес идет в гору и кажется, что ничто не может ему помешать. Но однажды дочь олигарха находят мертвой — кто-то использовал ее для обряда ритуального жертвоприношения. Чтобы найти убийцу, Кобрин выписывает из Москвы лучшего детектива — Максима Покровского. То, с чем сталкивается столичный следователь в маленьком северном городке, бросает вызов всему, на что он опирался в своей работе. Покровскому предстоит разобраться в сложном клубке из криминала, корпоративных интриг и мрачных тайн семейства Кобриных.

Качество: WEB-DLRip
Формат: AVI

Видео: XviD, ~ 1400 Кбит/с, 720x304
Аудио: AC3, 2 ch, 192 Кбит/с
скриншот  скриншот  скриншот  скриншот  

Общее
Полное имя : D:\Mertvoe.ozero.2018.WEB-DLRip.25Kuzmich\Mertvoe.ozero.e01.WEB-DLRip.25Kuzmich.avi
Формат : AVI
Формат/Информация : Audio Video Interleave
Размер файла : 600 Мбайт
Продолжительность : 52 м. 42 с.
Общий поток : 1593 Кбит/сек
Программа кодирования : VirtualDubMod 1.5.10.3 | www.virtualdub-fr.org || (build 2550/release)
Библиотека кодирования : VirtualDubMod build 2550/release

Видео
Идентификатор : 0
Формат : MPEG-4 Visual
Профиль формата : Advanced Simple@L5
Параметр BVOP формата : 1
Параметр QPel формата : Нет
Параметр GMC формата : Без точки перехода
Параметр матрицы формата : Default (MPEG)
Идентификатор кодека : XVID
Идентификатор кодека/Подсказка : XviD
Продолжительность : 52 м. 42 с.
Битрейт : 1391 Кбит/сек
Ширина : 720 пикселей
Высота : 304 пикселя
Соотношение сторон : 2,35:1
Частота кадров : 25,000 кадров/сек
Цветовое пространство : YUV
Субдискретизация насыщенности : 4:2:0
Битовая глубина : 8 бит
Тип развёртки : Прогрессивная
Метод сжатия : С потерями
Бит/(Пиксели*Кадры) : 0.254
Размер потока : 524 Мбайт (87%)
Библиотека кодирования : XviD 73

Аудио
Идентификатор : 1
Формат : AC-3
Формат/Информация : Audio Coding 3
Расширение режима : CM (complete main)
Параметр Endianness формата : Big
Идентификатор кодека : 2000
Продолжительность : 52 м. 42 с.
Вид битрейта : Постоянный
Битрейт : 192 Кбит/сек
Каналы : 2 канала
Расположение каналов : Front: L R
Частота : 48,0 КГц
Частота кадров : 31,250 кадров/сек (1536 spf)
Метод сжатия : С потерями
Размер потока : 72,4 Мбайт (12%)
Выравнивание : Разделение по промежуткам
Продолжительность промежутка : 40 мс. (1,00 видеокадр)
Время предзагрузки промежутка : 500 мс.

Внимание! Раздача ведётся путём добавления новых серий; при каждом добавлении создаётся новый торрент.
Чтобы начать докачку новой серии, пользователям необходимо сделать следующее:
1. Остановить скачивание;
2. Удалить старый торрент у себя из клиента (старые серии удалять не надо);
3. Скачать новый торрент и запустить его у себя в клиенте вместо старого, при этом указать клиенту путь в старую папку куда и должно происходить скачивание новых серий. Ваш клиент при этом должен произвести хеширование (проверку) старой папки и будет докачивать только те серии, которых у вас ещё нет. Старые серии при этом не удаляются, а продолжают раздаваться! Eсли вы уже удалили старые серии, то предотвратить повторную закачку старых серий можно, отжав галочку в соответствующих местах при запуске нового торрента.
pb.wtf



Скачать Мертвое озеро через торрент http://img16.lostpic.net/2019/03/13/6e85a501c15e178faaadbc1bb07b2e86.jpg Скачать, смотреть онлайн Мертвое озеро бесплантно в хорошем качестве Описание: Владелец урановых родников Юрий Кобрин — царь и Бог в родном Чангадане. Его бизнес идет в гору и кажется, что ничто не может ему ... 10 10 24
Торрент: Зарегистрирован [2019-04-25 01:15] · скачан: 640 раз
Статус: √ проверено
Размер: 4.69 GB
Как cкачать? Как скачать Мертвое озеро через торрент | UTorrent

% Раздел Тема Автор DL S | L
TNT serials [ 7.46 GB ] Мертвое озеро / Сезон: 1 / Серии: 1-8 из 8 [2019 WEB-DLRip-AVC] bober100 Скачать
3 | 1
TNT serials [ 13.45 GB ] Мертвое озеро / Сезон: 1 / Серии: 1-8 из 8 [2019 WEB-DL 1080p] bober100 Скачать
2 | 0
TNT serials [ 9.59 GB ] Мертвое озеро / Сезон: 1 / Серии: 1-8 из 8 [2019 WEB-DL 720p] bober100 Скачать
1 | 0


Последний раз редактировалось: bober100 (2019-04-25 01:15), всего редактировалось 4 раз(а)

28-11-2019 20:33  

Отключить всю рекламу на сайте

03-04-2019 20:08 Мертвое озеро Скачать торрент  

когда 5-8 появиться а так стоящее киноpb.wtf



09-04-2019 06:18 Мертвое озеро Скачать торрент  

айромен писал(а):

когда 5-8 появиться а так стоящее кино

6 серия запланирована на 18 апреляpb.wtf



    Дорогой пользователь! Огромная просьба, поблагодарите релизера, оцените раздачу и оставьте свои комментарий, если Вы скачали Мертвое озеро через торрент бесплатно!
    Комментировать посты могут только пользователи прошедшие не сложную регистрацию
    Показать сообщения:    

    Мертвое озеро через торрент
    Скачать бесплатно Мертвое озеро
    Мертвое озеро скачать торрент
    Мертвое озеро смотреть онлайн
    Cкачать фильм Мертвое озеро бесплатно
    Мертвое озеро скачать торрент в хорошем качестве
    Мертвое озеро смотреть онлайн бесплатно в хорошем качестве


    Вы не можете начинать темы
    Вы не можете отвечать на сообщения
    Вы не можете редактировать свои сообщения
    Вы не можете удалять свои сообщения
    Вы не можете голосовать в опросах
    Вы не можете прикреплять файлы к сообщениям
    Вы можете скачивать файлы