Ссылка на приватное зеркало нашего сайта всего за 1$. Внимание количество ограничено!!!

2 сезон

iTunes

1 сезон

1

2 сезон

2 сезон

iTunes

1 сезон

RePack

30

Ultimate

ВАЖНО

ИГРА 18+

pack

RePack

MK11
pack

Забери бонус

RePack

jed

!!Акция!!

Alien_Rage

RePack

fifa19

RePack

Assassins Creed: Odyssey

RePack

NEED FOR SPEED™ PAYBACK

4 сезон

9 сезон

Бесстыжие 9 сезон

Все сериалы

все сериалы на PB.wtf

RePack

FAR CRY 5
  

Все к лучшему / Радости жизни / Перемены / Better Things / Сезон: 2 / Серии: 1-10 из 10 (Лэнс Бэнгс, Луис С.К., Ниша Ганатра) [2017, Комедия, WEBRip] MVO [Jaskier] pb.wtf

Все к лучшему через торрент pb.wtf

Размер: 3.17 GB | Добавлен: 1 год 8 мес. назад | Торрент скачан:3 раза
Скачать  

14-03-2019 05:17 Все к лучшему Скачать торрент  

Все к лучшему | Радости жизни | Better Things

Год выпуска: 2017
Страна: США
Жанр: Комедия
Продолжительность: ~ 00:25:00
Перевод: Профессиональный (многоголосый закадровый) | Jaskier
Субтитры: отсутствуют

Режиссёр: Лэнс Бэнгс, Луис С.К., Ниша Ганатра

В ролях:

Памела Адлон, Ханна Аллигуд, Оливия Эдвард, Селия Имри, Мики Мэдисон, Райли Уотсон, Ребекка Мец, Алисия Райнер, Бриджер Задина, Абрахам Лим

Описание:

Жизнь матери-одиночки всегда сложна и сурова. Приходится делать работу за двоих, чтобы прокормить своего малыша. Героиня этого сериала Сэм не унывает, ведь на ее плечи легла большая ответственность, которая перерастает в смысл жизни. Девушка просто лишена минуты спокойствия на то, чтобы заниматься самотерзанием. Главная героиня способна прокормить и вырастить в одиночку трех чудесных дочерей. Сэм не достигла успехов в карьере, но зато в личной жизни у нее все в полнейшем порядке. Она работает не самой популярной и востребованной актрисой, однако для зрителей этого сериала Сэм станет настоящей звездой, ведь девушка всегда полна оптимизма и хорошего настроения!



Качество: WEBRip
Формат: AVI

Видео: XviD, ~ 1500 kbps, 720x400 (16:9), 23.976 fps
Аудио 1: MP3, 48,0 КГц, 2 ch, 128 kbps - Rus
Аудио 2: MP3, 48,0 КГц, 2 ch, 128 kbps - Eng


Реклама: Присутствует звуковая (два раза в начале и конце по 10 сек.)
Переведено и озвучено: студией Jaskier
Общее
Полное имя                               : F:\Jaskier\Better.Things.Season 2 (WEBRip l 400p l Jaskier)\Better.Things.S02E01.WEBRip.Rus.Eng.Jaskier.avi
Формат                                   : AVI
Формат/Информация                        : Audio Video Interleave
Размер файла                             : 331 Мбайт
Продолжительность                        : 26 м. 35 с.
Общий поток                              : 1738 Кбит/сек
Программа кодирования                    : VirtualDubMod 1.5.10.2 (build 2540/release)
Библиотека кодирования                   : VirtualDubMod build 2540/release

Видео
Идентификатор                            : 0
Формат                                   : MPEG-4 Visual
Профиль формата                          : Advanced Simple@L5
Параметр BVOP формата                    : 1
Параметр QPel формата                    : Нет
Параметр GMC формата                     : Без точки перехода
Параметр матрицы формата                 : Default (MPEG)
Идентификатор кодека                     : XVID
Идентификатор кодека/Подсказка           : XviD
Продолжительность                        : 26 м. 35 с.
Битрейт                                  : 1468 Кбит/сек
Ширина                                   : 720 пикселей
Высота                                   : 400 пикселей
Соотношение сторон                       : 16:9
Частота кадров                           : 23,976 (24000/1001) кадра/сек
Цветовое пространство                    : YUV
Субдискретизация насыщенности            : 4:2:0
Битовая глубина                          : 8 бит
Тип развёртки                            : Прогрессивная
Метод сжатия                             : С потерями
Бит/(Пиксели*Кадры)                      : 0.213
Размер потока                            : 279 Мбайт (84%)
Библиотека кодирования                   : XviD 73

Аудио #1
Идентификатор                            : 1
Формат                                   : MPEG Audio
Версия формата                           : Version 1
Профиль формата                          : Layer 3
Идентификатор кодека                     : 55
Идентификатор кодека/Подсказка           : MP3
Продолжительность                        : 26 м. 35 с.
Вид битрейта                             : Постоянный
Битрейт                                  : 128 Кбит/сек
Каналы                                   : 2 канала
Частота                                  : 48,0 КГц
Метод сжатия                             : С потерями
Размер потока                            : 24,3 Мбайт (7%)
Выравнивание                             : Соединение по промежуткам
Продолжительность промежутка             : 42  мс. (1,00 видеокадр)
Время предзагрузки промежутка            : 504  мс.
Библиотека кодирования                   : LAME3.100Є

Аудио #2
Идентификатор                            : 2
Формат                                   : MPEG Audio
Версия формата                           : Version 1
Профиль формата                          : Layer 3
Режим                                    : Joint stereo
Расширение режима                        : MS Stereo
Идентификатор кодека                     : 55
Идентификатор кодека/Подсказка           : MP3
Продолжительность                        : 26 м. 35 с.
Вид битрейта                             : Постоянный
Битрейт                                  : 128 Кбит/сек
Каналы                                   : 2 канала
Частота                                  : 48,0 КГц
Метод сжатия                             : С потерями
Размер потока                            : 24,3 Мбайт (7%)
Выравнивание                             : Соединение по промежуткам
Продолжительность промежутка             : 42  мс. (1,00 видеокадр)
Время предзагрузки промежутка            : 504  мс.
скриншот  скриншот  скриншот  
pb.wtf



Скачать Все к лучшему через торрент http://i102.fastpic.ru/big/2017/1225/36/7f6d6e0c1ed47264bab5af114391bb36.png Скачать фильм Все к лучшему через торрент бесплантно в хорошем качестве Описание: Жизнь матери-одиночки всегда сложна и сурова. Приходится делать работу за двоих, чтобы прокормить своего малыша. Героиня этого ... 10 10 2
Торрент: Зарегистрирован [2019-03-14 05:17] · скачан: 3 раз
Статус: √ проверено
Размер: 3.17 GB
Как cкачать? Как скачать Все к лучшему через торрент | qTorrent

28-11-2019 20:33  

Отключить всю рекламу на сайте

    Дорогой пользователь! Огромная просьба, поблагодарите релизера, оцените раздачу и оставьте свои комментарий, если Вы скачали Все к лучшему через торрент бесплатно! Внесите свою лепту в развитие PiratBit!
    Комментировать посты могут только пользователи прошедшие не сложную регистрацию
    Показать сообщения:    

    Все к лучшему через торрент
    Скачать бесплатно Все к лучшему
    Все к лучшему скачать торрент
    Все к лучшему смотреть онлайн
    Cкачать фильм Все к лучшему бесплатно
    Все к лучшему скачать торрент в хорошем качестве
    Все к лучшему смотреть онлайн бесплатно в хорошем качестве


    Вы не можете начинать темы
    Вы не можете отвечать на сообщения
    Вы не можете редактировать свои сообщения
    Вы не можете удалять свои сообщения
    Вы не можете голосовать в опросах
    Вы не можете прикреплять файлы к сообщениям
    Вы можете скачивать файлы