Ссылка на приватное зеркало нашего сайта всего за 1$. Внимание количество ограничено!!!

2 сезон

iTunes

1 сезон

1

2 сезон

2 сезон

iTunes

1 сезон

RePack

30

Новинка

ВАЖНО

ИГРА 18+

pack

RePack

MK11
pack

Забери бонус

RePack

jed

!!Акция!!

Alien_Rage

RePack

fifa19

RePack

Assassins Creed: Odyssey

RePack

NEED FOR SPEED™ PAYBACK

4 сезон

9 сезон

Бесстыжие 9 сезон

Все сериалы

все сериалы на PB.wtf

RePack

FAR CRY 5
  

Все к лучшему / Радости жизни / Перемены / Better Things / Сезон: 3 / Серии: 1-12 из 12 (Лэнс Бэнгс, Луис С.К., Ниша Ганатра) [2019, Комедия, WEB-DL 1080p] MVO [Jaskier] pb.wtf

Все к лучшему через торрент pb.wtf

Размер: 15.42 GB | Добавлен: 1 год 4 мес. назад | Торрент скачан:2 раза
Скачать  

14-03-2019 05:31 Все к лучшему Скачать торрент  

Радости жизни | Better Things

Год выпуска: 2019
Страна: США
Жанр: Комедия
Продолжительность: ~ 00:25:00
Перевод: Профессиональный (многоголосый закадровый) | Jaskier
Субтитры: отсутствуют

Режиссёр: Лэнс Бэнгс, Луис С.К., Ниша Ганатра

В ролях: Памела Адлон, Ханна Аллигуд, Оливия Эдвард, Селия Имри, Мики Мэдисон, Райли Уотсон, Ребекка Мец, Алисия Райнер, Бриджер Задина, Абрахам Лим

Описание: Жизнь матери-одиночки всегда сложна и сурова. Приходится делать работу за двоих, чтобы прокормить своего малыша. Героиня этого сериала Сэм не унывает, ведь на ее плечи легла большая ответственность, которая перерастает в смысл жизни. Девушка просто лишена минуты спокойствия на то, чтобы заниматься самотерзанием. Главная героиня способна прокормить и вырастить в одиночку трех чудесных дочерей. Сэм не достигла успехов в карьере, но зато в личной жизни у нее все в полнейшем порядке. Она работает не самой популярной и востребованной актрисой, однако для зрителей этого сериала Сэм станет настоящей звездой, ведь девушка всегда полна оптимизма и хорошего настроения!



Качество: WEB-DL 1080p
Формат: MKV

Видео: 1920x1080 (16:9) | X264 | ~8977 kbps | 23.976 fps
Аудио 1: AC3, 48,0 КГц, 6 ch, 384 kbps - [RUS]
Аудио 2: AC3, 48,0 КГц, 6 ch, 384 kbps - [ENG]


Реклама: Присутствует звуковая (два раза в начале и конце по 10 сек.)
Переведено и озвучено: студией Jaskier
Общее
Уникальный идентификатор                 : 132142960219056220984997678064091484874 (0x6369CEF378C94B00903D49D23C3F52CA)
Полное имя                               : G:\Jaskier\Better.Things.Season 3 (WEB-DL l 1080p l Jaskier)\Better.Things.S03E01.WEB-DL.1080p.Jaskier.mkv
Формат                                   : Matroska
Версия формата                           : Version 4 / Version 2
Размер файла                             : 1,87 Гбайт
Продолжительность                        : 27 м. 27 с.
Режим общего битрейта                    : Постоянный
Общий поток                              : 9747 Кбит/сек
Дата кодирования                         : UTC 2019-03-07 14:51:57
Программа кодирования                    : mkvmerge v28.0.0 ('Voice In My Head') 64-bit
Библиотека кодирования                   : libebml v1.3.6 + libmatroska v1.4.9

Видео
Идентификатор                            : 1
Формат                                   : AVC
Формат/Информация                        : Advanced Video Codec
Профиль формата                          : High@L4
Настройки формата                        : CABAC / 4 Ref Frames
Параметр CABAC формата                   : Да
Параметр RefFrames формата               : 4 кадра
Идентификатор кодека                     : V_MPEG4/ISO/AVC
Продолжительность                        : 27 м. 27 с.
Вид битрейта                             : Постоянный
Битрейт                                  : 8977 Кбит/сек
Номинальный битрейт                      : 10000 Кбит/сек
Ширина                                   : 1920 пикселей
Высота                                   : 1080 пикселей
Соотношение сторон                       : 16:9
Режим частоты кадров                     : Постоянный
Частота кадров                           : 23,976 (24000/1001) кадра/сек
Цветовое пространство                    : YUV
Субдискретизация насыщенности            : 4:2:0
Битовая глубина                          : 8 бит
Тип развёртки                            : Прогрессивная
Бит/(Пиксели*Кадры)                      : 0.181
Размер потока                            : 1,72 Гбайт (92%)
Язык                                     : English
Default                                  : Да
Forced                                   : Нет
Цветовой диапазон                        : Limited
Основные цвета                           : BT.709
Характеристики трансфера                 : BT.709
Коэффициенты матрицы                     : BT.709

Аудио #1
Идентификатор                            : 2
Формат                                   : AC-3
Формат/Информация                        : Audio Coding 3
Идентификатор кодека                     : A_AC3
Продолжительность                        : 27 м. 27 с.
Вид битрейта                             : Постоянный
Битрейт                                  : 384 Кбит/сек
Каналы                                   : 6 каналов
Расположение каналов                     : Front: L C R, Side: L R, LFE
Частота                                  : 48,0 КГц
Частота кадров                           : 31,250 кадров/сек (1536 SPF)
Битовая глубина                          : 16 бит
Метод сжатия                             : С потерями
Размер потока                            : 75,4 Мбайт (4%)
Язык                                     : Russian
ServiceKind/String                       : Complete Main
Default                                  : Да
Forced                                   : Нет

Аудио #2
Идентификатор                            : 3
Формат                                   : AC-3
Формат/Информация                        : Audio Coding 3
Идентификатор кодека                     : A_AC3
Продолжительность                        : 27 м. 27 с.
Вид битрейта                             : Постоянный
Битрейт                                  : 384 Кбит/сек
Каналы                                   : 6 каналов
Расположение каналов                     : Front: L C R, Side: L R, LFE
Частота                                  : 48,0 КГц
Частота кадров                           : 31,250 кадров/сек (1536 SPF)
Битовая глубина                          : 16 бит
Метод сжатия                             : С потерями
Размер потока                            : 75,4 Мбайт (4%)
Язык                                     : English
ServiceKind/String                       : Complete Main
Default                                  : Нет
Forced                                   : Нет
скриншот  скриншот  скриншот  
Когда раздача ведётся путём добавления новых серий, при каждом добавлении создётся новый торрент. Чтобы начать докачку новой серии, пользователям необходимо сделать следующее:
(1) остановить скачивание,
(2) удалить старый торрент у себя из клиента (старые серии удалять не надо),
(3) скачать новый торрент и запустить его у себя в клиенте вместо старого, при этом указать клиенту путь в старую папку, куда и должно происходить скачивание новых серий.
Ваш клиент при этом должен произвести хеширование (проверку) старой папки (если не производит сам - помогите ему сделать это), и будет докачивать только те серии, которых у вас ещё нет. Старые серии при этом не удаляются, а продолжают раздаваться!
Eсли вы уже удалили старые серии, то предотвратить повторную закачку старых серий можно, отжав галочку в соответсвующих местах при запуске нового торрента. По возможности, желательно не удалять старые серии как можно дольше, чтобы релизёр не столько продолжал раздавать старые серии, а смог сконцентрироваться на новых.
pb.wtf



Скачать Все к лучшему через торрент https://i110.fastpic.ru/big/2019/0307/67/01ba12b5eedfc3a04ef1fd7595d25367.png Скачать фильм Все к лучшему через торрент бесплантно в хорошем качестве Описание: Жизнь матери-одиночки всегда сложна и сурова. Приходится делать работу за двоих, чтобы прокормить своего малыша. Героиня этого ... 7 10 3
Торрент: Зарегистрирован [2019-07-23 20:48] · скачан: 2 раз
Статус: √ проверено
Размер: 15.42 GB
Как cкачать? Как скачать Все к лучшему через торрент | qTorrent

% Раздел Тема Автор DL S | L
Зарубежные сериалы [ 3.94 GB ] Все к лучшему / Радости жизни / Перемены / Better Things / Сезон: 3 / Серии: 1-12 из 12 [2019 WEB-DLRip] MVO [Jaskier] bober100 Скачать
1 | 0

28-11-2019 20:33  

Отключить всю рекламу на сайте

    Дорогой пользователь! Огромная просьба, поблагодарите релизера, оцените раздачу и оставьте свои комментарий, если Вы скачали Все к лучшему через торрент бесплатно! Внесите свою лепту в развитие PiratBit!
    Комментировать посты могут только пользователи прошедшие не сложную регистрацию
    Показать сообщения:    

    Все к лучшему через торрент
    Скачать бесплатно Все к лучшему
    Все к лучшему скачать торрент
    Все к лучшему смотреть онлайн
    Cкачать фильм Все к лучшему бесплатно
    Все к лучшему скачать торрент в хорошем качестве
    Все к лучшему смотреть онлайн бесплатно в хорошем качестве


    Вы не можете начинать темы
    Вы не можете отвечать на сообщения
    Вы не можете редактировать свои сообщения
    Вы не можете удалять свои сообщения
    Вы не можете голосовать в опросах
    Вы не можете прикреплять файлы к сообщениям
    Вы можете скачивать файлы