Ссылка на приватное зеркало нашего сайта всего за 1$. Внимание количество ограничено!!!

2 сезон

iTunes

1 сезон

1

2 сезон

2 сезон

iTunes

1 сезон

RePack

30

Новинка

ВАЖНО

ИГРА 18+

pack

RePack

MK11
pack

Забери бонус

RePack

jed

!!Акция!!

Alien_Rage

RePack

fifa19

RePack

Assassins Creed: Odyssey

RePack

NEED FOR SPEED™ PAYBACK

4 сезон

9 сезон

Бесстыжие 9 сезон

Все сериалы

все сериалы на PB.wtf

RePack

FAR CRY 5
  

Хорошие девчонки / Good Girls / Сезон: 2 / Серии: 1-13 из 13 (Сара Пиа Андерсон, Дин Паризо) [2019, Драма, WEBRip 720p] MVO [Jaskier] pb.wtf

Хорошие девчонки через торрент pb.wtf

Размер: 13.48 GB | Добавлен: 1 год 4 мес. назад | Торрент скачан:1 раз
Скачать  

14-03-2019 05:49 Хорошие девчонки Скачать торрент  

Хорошие девчонки | Good Girls

Год выпуска: 2019
Страна: США
Жанр: Драма
Продолжительность: ~ 00:45:00
Перевод: Профессиональный (многоголосый закадровый) | Jaskier
Субтитры: английские

Режиссёр: Сара Пиа Андерсон, Дин Паризо

В ролях: Ретта, Мэй Уитман, Кейтлин Оксле, Брэкстон Бьеркен, Калеб Эмери, Саттон Джонстон, Мила Миддлсуорт, Кристиан Адам, Николас Александр, Деджа Ди и другие.

Описание: История трех женщин, попавших в затруднительные обстоятельства и вынужденных пойти на ограбление супермаркета с игрушечным пистолетом.

rating

Качество: WEBRip 720p
Формат: MKV

Видео: 1280x720 (16:9) | X264 | ~4000 kbps | 23.976 fps
Аудио 1: AC3, 48,0 КГц, 6 ch, 384 kbps - [RUS]
Аудио 2: AC3, 48,0 КГц, 6 ch, 384 kbps - [ENG]


Реклама: Присутствует звуковая (два раза в начале и конце по 12 сек.)
Перевод и озвучивание Студия Jaskier
Общее
Уникальный идентификатор                 : 214061717966200547148958142500310043973 (0xA10AC989BA4B37D3843FF07EFCDF4D45)
Полное имя                               : H:\JASKiER\Good Girls. Season 2 (WEBRip l 720p l Jaskier)\Good.Girls.S02E01.720p.DD5.1.x264-Jaskier.mkv
Формат                                   : Matroska
Версия формата                           : Version 2
Размер файла                             : 1,45 Гбайт
Продолжительность                        : 42 м. 53 с.
Общий поток                              : 4832 Кбит/сек
Дата кодирования                         : UTC 2019-03-06 12:29:22
Программа кодирования                    : mkvmerge v7.8.0 ('River Man') 32bit built on Apr  3 2015 12:11:22
Библиотека кодирования                   : libebml v1.3.1 + libmatroska v1.4.2

Видео
Идентификатор                            : 1
Формат                                   : AVC
Формат/Информация                        : Advanced Video Codec
Профиль формата                          : High@L3.1
Настройки формата                        : CABAC / 4 Ref Frames
Параметр CABAC формата                   : Да
Параметр RefFrames формата               : 4 кадра
Идентификатор кодека                     : V_MPEG4/ISO/AVC
Продолжительность                        : 42 м. 53 с.
Вид битрейта                             : Постоянный
Битрейт                                  : 3968 Кбит/сек
Номинальный битрейт                      : 6000 Кбит/сек
Ширина                                   : 1280 пикселей
Высота                                   : 720 пикселей
Соотношение сторон                       : 16:9
Режим частоты кадров                     : Постоянный
Частота кадров                           : 23,976 (24000/1001) кадра/сек
Цветовое пространство                    : YUV
Субдискретизация насыщенности            : 4:2:0
Битовая глубина                          : 8 бит
Тип развёртки                            : Прогрессивная
Бит/(Пиксели*Кадры)                      : 0.180
Размер потока                            : 1,19 Гбайт (82%)
Язык                                     : English
Default                                  : Да
Forced                                   : Нет
Цветовой диапазон                        : Limited
Основные цвета                           : BT.709
Характеристики трансфера                 : BT.709
Коэффициенты матрицы                     : BT.709

Аудио #1
Идентификатор                            : 2
Формат                                   : AC-3
Формат/Информация                        : Audio Coding 3
Коммерческое название                    : Dolby Digital
Идентификатор кодека                     : A_AC3
Продолжительность                        : 42 м. 53 с.
Вид битрейта                             : Постоянный
Битрейт                                  : 384 Кбит/сек
Каналы                                   : 6 каналов
Channel layout                           : L R C LFE Ls Rs
Частота                                  : 48,0 КГц
Частота кадров                           : 31,250 кадров/сек (1536 SPF)
Битовая глубина                          : 16 бит
Метод сжатия                             : С потерями
Размер потока                            : 118 Мбайт (8%)
Заголовок                                : Jaskier
Язык                                     : Russian
ServiceKind/String                       : Complete Main
Default                                  : Да
Forced                                   : Нет

Аудио #2
Идентификатор                            : 3
Формат                                   : AC-3
Формат/Информация                        : Audio Coding 3
Коммерческое название                    : Dolby Digital
Идентификатор кодека                     : A_AC3
Продолжительность                        : 42 м. 53 с.
Вид битрейта                             : Постоянный
Битрейт                                  : 384 Кбит/сек
Каналы                                   : 6 каналов
Channel layout                           : L R C LFE Ls Rs
Частота                                  : 48,0 КГц
Частота кадров                           : 31,250 кадров/сек (1536 SPF)
Битовая глубина                          : 16 бит
Метод сжатия                             : С потерями
Размер потока                            : 118 Мбайт (8%)
Язык                                     : English
ServiceKind/String                       : Complete Main
Default                                  : Нет
Forced                                   : Нет

Текст
Идентификатор                            : 4
Формат                                   : UTF-8
Идентификатор кодека                     : S_TEXT/UTF8
Идентификатор кодека/Информация          : UTF-8 Plain Text
Язык                                     : English
Default                                  : Нет
Forced                                   : Нет
скриншот  скриншот  скриншот  
Когда раздача ведётся путём добавления новых серий, при каждом добавлении создётся новый торрент. Чтобы начать докачку новой серии, пользователям необходимо сделать следующее:
(1) остановить скачивание,
(2) удалить старый торрент у себя из клиента (старые серии удалять не надо),
(3) скачать новый торрент и запустить его у себя в клиенте вместо старого, при этом указать клиенту путь в старую папку, куда и должно происходить скачивание новых серий.
Ваш клиент при этом должен произвести хеширование (проверку) старой папки (если не производит сам - помогите ему сделать это), и будет докачивать только те серии, которых у вас ещё нет. Старые серии при этом не удаляются, а продолжают раздаваться!
Eсли вы уже удалили старые серии, то предотвратить повторную закачку старых серий можно, отжав галочку в соответсвующих местах при запуске нового торрента. По возможности, желательно не удалять старые серии как можно дольше, чтобы релизёр не столько продолжал раздавать старые серии, а смог сконцентрироваться на новых.
pb.wtf



Скачать Хорошие девчонки через торрент https://i110.fastpic.ru/big/2019/0306/ac/b18d01178970dfe3188cc302ae8edbac.png Скачать фильм Хорошие девчонки через торрент бесплантно в хорошем качестве Описание: История трех женщин, попавших в затруднительные обстоятельства и вынужденных пойти на ограбление супермаркета с игрушечным ... 8 10 3
Торрент: Зарегистрирован [2019-07-23 20:29] · скачан: 1 раз
Статус: √ проверено
Размер: 13.48 GB
Как cкачать? Как скачать Хорошие девчонки через торрент | qTorrent

% Раздел Тема Автор DL S | L
Зарубежные сериалы [ 34.94 GB ] Хорошие девчонки / Good Girls / Сезон: 2 / Серии: 1-13 из 13 [2019 WEBRip 1080p] [MVO] killermax2013 Скачать
1 | 0
Зарубежные сериалы [ 38.59 GB ] Хорошие девчонки / Good Girls / Сезон: 2 / Серии: 1-13 из 13 [2019 WEBRip 1080p] [MVO] killermax2013 Скачать
1 | 0
Зарубежные сериалы [ 6.82 GB ] Хорошие девчонки / Good Girls / Сезон: 2 / Серии: 1-13 из 13 [2019 WEBRip] MVO [Jaskier] bober100 Скачать
1 | 0

28-11-2019 20:33  

Отключить всю рекламу на сайте

    Дорогой пользователь! Огромная просьба, поблагодарите релизера, оцените раздачу и оставьте свои комментарий, если Вы скачали Хорошие девчонки через торрент бесплатно! Внесите свою лепту в развитие PiratBit!
    Комментировать посты могут только пользователи прошедшие не сложную регистрацию
    Показать сообщения:    

    Хорошие девчонки через торрент
    Скачать бесплатно Хорошие девчонки
    Хорошие девчонки скачать торрент
    Хорошие девчонки смотреть онлайн
    Cкачать фильм Хорошие девчонки бесплатно
    Хорошие девчонки скачать торрент в хорошем качестве
    Хорошие девчонки смотреть онлайн бесплатно в хорошем качестве


    Вы не можете начинать темы
    Вы не можете отвечать на сообщения
    Вы не можете редактировать свои сообщения
    Вы не можете удалять свои сообщения
    Вы не можете голосовать в опросах
    Вы не можете прикреплять файлы к сообщениям
    Вы можете скачивать файлы