новый адрес пиратбит piratbit
Мега распродажа FORZA HORIZON 4 ULTIMATE+ВСЕ DLC+ОНЛАЙН всего за 499р. 349 руб. (супер цена). Внимание количество ограничено!!!

iTunes

1+1

iTunes

мы

iTunes

1

iTunes

Чернобыль

iTunes

Ральф против интернета

Лицензия

ПШазам

Лицензия

Игра престолов

Лицензия

30
pack

ВАЖНО

!!Акция!!

Alien_RageХит недели

RePack

Resident Evil 21

ИГРА 18+

pack

RePack

Metro:Exodus

!!Акция!!

Alien_Rage

RePack

fifa19

RePack

Assassins Creed: Odyssey

RePack

NEED FOR SPEED™ PAYBACK

3 сезон

9 сезон

Бесстыжие 9 сезон

Все сериалы

все сериалы на PB.wtf

RePack

FAR CRY 5
Ребята, катастрофически не хватает 1900р. для оплаты серверов за Октябрь (всвязи с блокировками трафик упал в 3 раза), 1-2р., выручайте.
  

Завод (Юрий Быков) [2019, Боевик, драма, триллер, криминал, WEB-DLRip] [iTunes] pb.wtf

Завод через торрент pb.wtf

Раздают: 2 [ 0 KB/s ]
Размер: 2.05 GB | Добавлен: 8 мес. назад | Торрент скачан:271 раз
Скачать  

14-03-2019 06:30 Завод Скачать торрент  

ЗаводГод выпуска: 2019
Страна: Россия Армения Франция
Жанр: Боевик, драма, триллер, криминал
Продолжительность: ~ 01:50:43
Перевод: Не требуется | iTunes
Субтитры: отсутствуют

Режиссер: Юрий Быков

rating

В ролях:

Денис Шведов, Владислав Абашин, Андрей Смоляков, Александр Бухаров, Дмитрий Куличков, Иван Янковский, Юрий Тарасов, Пётр Баранчеев, Александр Воробьёв, Алексей Комашко, Кирилл Полухин, Александр Логинов, Сергей Сосновский, Борис Невзоров, Олег Алмазов

Описание:

Закрывают градообразующий завод. Владелец предприятия — олигарх Калугин — банкротит его, чтобы заключить выгодную сделку с иностранцами. Несколько тысяч рабочих остаются на улице без средств к существованию. Все смиренно принимают эту участь, и только пятеро отчаянных мужиков решают отстоять свое и взять хозяина в заложники, чтоб требовать с него деньги. Вожак работяг — Седой, воевавший и раненый в горячей точке, — вместе с товарищами вступает в смертельную схватку с опричником олигарха Туманом и его группой спецов за жизнь Калугина. Исход боя решит, кто прав — богатые или бедные.

Качество: WEB-DLRip
Формат: AVI

Видео: 720x304 (2.35:1), 24.000 fps, XviD build 73 ~2 258 kbps avg
Аудио: 48.0 kHz, AC3 Dolby Digital, 3/2 (L,C,R,l,r) + LFE ch, ~384 kbps
скриншот  скриншот  скриншот  

General
Формат : AVI
Формат/Информация : Audio Video Interleave
Профиль формата : OpenDML
Размер файла : 2,05 Гбайт
Продолжительность : 1 ч. 50 м.
Общий поток : 2654 Кбит/сек
Программа кодирования : VirtualDubMod 1.5.10.3 | (build 2550/release)
Библиотека кодирования : VirtualDubMod build 2550/release

Видео
Идентификатор : 0
Формат : MPEG-4 Visual
Профиль формата : Advanced Simple@L5
Настройки формата : BVOP1 / Custom Matrix
Параметр BVOP формата : 1
Параметр QPel формата : Нет
Параметр GMC формата : Без точки перехода
Параметр матрицы формата : Выборочная
Идентификатор кодека : XVID
Идентификатор кодека/Подсказка : XviD
Продолжительность : 1 ч. 50 м.
Битрейт : 2258 Кбит/сек
Ширина : 720 пикселей
Высота : 304 пикселя
Соотношение сторон : 2,35:1
Частота кадров : 24,000 кадра/сек
Цветовое пространство : YUV
Субдискретизация насыщенности : 4:2:0
Битовая глубина : 8 бит
Тип развёртки : Прогрессивная
Метод сжатия : С потерями
Бит/(Пиксели*Кадры) : 0.430
Размер потока : 1,75 Гбайт (85%)
Библиотека кодирования : XviD 73

Аудио
Идентификатор : 1
Формат : AC-3
Формат/Информация : Audio Coding 3
Коммерческое название : Dolby Digital
Идентификатор кодека : 2000
Продолжительность : 1 ч. 50 м.
Вид битрейта : Постоянный
Битрейт : 384 Кбит/сек
Каналы : 6 каналов
Channel layout : L R C LFE Ls Rs
Частота : 48,0 КГц
Частота кадров : 31,250 кадров/сек (1536 SPF)
Битовая глубина : 16 бит
Метод сжатия : С потерями
Размер потока : 304 Мбайт (14%)
Выравнивание : Разделение по промежуткам
Продолжительность промежутка : 42 мс. (1,00 видеокадр)
Время предзагрузки промежутка : 500 мс.

pb.wtf



Скачать Завод через торрент http://a.radikal.ru/a03/1903/25/75327975bfac.jpg Скачать фильм Завод через торрент бесплантно в хорошем качестве Описание: Закрывают градообразующий завод. Владелец предприятия — олигарх Калугин — банкротит его, чтобы заключить выгодную сделку с ... 10 10 7
Торрент: Зарегистрирован [2019-03-14 06:30] · скачан: 271 раз
Статус: √ проверено
Размер: 2.05 GB
Как cкачать? Как скачать Завод через торрент | qTorrent

% Раздел Тема Автор DL S | L
Наши новые фильмы 2018-2019 [ 1.46 GB ] Завод [2019 WEB-DLRip] Twi7ter Скачать
8 | 0
T Наши фильмы (HD, WEB-DL 720p, 1080p) [ 3.42 GB ] Завод [2019 WEBRip 720p] bober100 Скачать
4 | 0
Фильмы [HD 720p, 1080p] (Хороший звук DUB, MVO) [ 11.17 GB ] Заводной апельсин / A Clockwork Orange [1971 BDRip 720p от _denis_100 / NNNB] 2xMVO + DVO + 3xAVO + Original + Sub _denis_100 Скачать
1 | 0
Порно фильмы без сюжета [ 3.29 GB ] Тинейджерский Заводчик / Teenage Breeder [2018 18+ Teens All Sex Cream Pie Cumshots Older Men WEB-DLRip] Split Scenes sheker187 Скачать
2 | 0
Фильмы до 2000 г. [ 1.96 GB ] Заводной апельсин / A Clockwork Orange [1971 HDRip] vocalbur Скачать
1 | 0
Фантастика [ 633 MB ] Энтони Бёрджесс - Заводной апельсин [Эдуард Чекмазов 2006 192 kbps MP3] bober100 Скачать
1 | 0
Нетрадиционное порно [ 1.94 GB ] Анально Заводные Сучки / Anal Motor Bitches [2008 Anal DP All Sex Threesome All Sex WEB-DL Оригинальный] DJASFUL Скачать
2 | 0


>> Регистрируемся здесь <<






Отзывы и комментарии о схеме читаем и пишем здесь: ---> Отзывы и комментарии о схеме

Новые благодарочки в телеграм довольных пользователей:
скриншот   скриншот   скриншот   скриншот   скриншот

14-03-2019 07:16 Завод Скачать торрент  

Фильм редкостная чушь.
Очень ждал сие творение, после Майора надеялся на качественное кино. pb.wtf



14-03-2019 08:21 Завод Скачать торрент  

полностью согласен,смотрится хорошо,но фильм безсмысленная ерундаpb.wtf



    Дорогой пользователь! Огромная просьба, поблагодарите релизера, оцените раздачу и оставьте свои комментарий, если Вы скачали Завод через торрент бесплатно! Внесите свою лепту в развитие PiratBit!
    Комментировать посты могут только пользователи прошедшие не сложную регистрацию
    Показать сообщения:    

    Завод через торрент
    Скачать бесплатно Завод
    Завод скачать торрент
    Завод смотреть онлайн
    Cкачать фильм Завод бесплатно
    Завод скачать торрент в хорошем качестве
    Завод смотреть онлайн бесплатно в хорошем качестве


    Вы не можете начинать темы
    Вы не можете отвечать на сообщения
    Вы не можете редактировать свои сообщения
    Вы не можете удалять свои сообщения
    Вы не можете голосовать в опросах
    Вы не можете прикреплять файлы к сообщениям
    Вы можете скачивать файлы