Мега распродажа FORZA HORIZON 4 ULTIMATE+ВСЕ DLC+ОНЛАЙН всего за 499р. 349 руб. (супер цена). Внимание количество ограничено!!!

Лицензия

30

iTunes

мы

iTunes

1

1 сезон

Чернобыль

1 сезон

Ральф против интернета

MVO

Покемон. Детектив Пикачу

8 сезон

Игра престолов

iTunes

1+1

ИГРА 18+

pack

ВАЖНО

!!Акция!!

Alien_RageХит недели

RePack

Resident Evil 21
pack

RePack

Metro:Exodus

!!Акция!!

Alien_Rage

RePack

fifa19

RePack

Assassins Creed: Odyssey

RePack

NEED FOR SPEED™ PAYBACK

3 сезон

9 сезон

Бесстыжие 9 сезон

Все сериалы

все сериалы на PB.wtf

RePack

FAR CRY 5
Ребята, катастрофически не хватает 2730р. для оплаты серверов за МАЙ (всвязи с блокировками трафик упал в 3 раза), 1-2р., выручайте.
  

Враг внутри / The Enemy Within / Сезон: 1 / Серии: 1-13 из 13 (Ричард Дж. Льюис, Марк Пеллингтон, Маризоль Адлер, Лили Марийе) [2019, драма, WEB-DL 1080p] [MVO] (Lostfilm) pb.wtf

Враг внутри через торрент pb.wtf

Качают: 1 [ 0 KB/s ]
Размер: 41.66 GB | Добавлен: 23 д. назад | Торрент скачан:6 раз
Скачать  

14-03-2019 09:37 Враг внутри Скачать торрент  



Враг внутри / The Enemy Within


Год выпуска: 2019
Страна: США
Жанр: драма
Продолжительность: 00:43:42
Перевод: Профессиональный (многоголосый закадровый) Lostfilm

Cубтитры: Русские (Forced), Английские (SDH)

Режиссёр: Ричард Дж. Льюис, Марк Пеллингтон, Маризоль Адлер, Лили Марийе

В ролях: Дженнифер Карпентер (Erica Shepherd), Моррис Честнат (Will Keaton), Келли Гарнер (Kate Ryan), Ной Миллс (Jason Bragg), Раза Джеффри (Daniel Zain), Кассандра Фриман (Jacqueline Pettigrew), Джеймс Карпинелло (Anthony Cabrera), Ной Бин (Christopher Shepherd), Корал Пенья (Anna Cruz), София Геннуса (Hannah Shepherd)

Описание: Эрику Шепард — бывшего агента ЦРУ и изменницу родины — освобождают из тюрьмы. Вместе с агентом ФБР Уиллом Китоном она должна будет найти опасного преступника, который хорошо ей знаком.
rating
Качество: WEB-DL 1080p
Контейнер: MKV
Видео: 1920x1080, 23.976 кадра/сек, MPEG-4 AVC, ~ 9486 Кбит/сек
Аудио Rus: E-AC3, 48 kHz, 3/2 (L,C,R,l,r) + LFE ch, 640 Кбит/сек | LostFilm
Аудио Eng: E-AC3, 48 kHz, 3/2 (L,C,R,l,r) + LFE ch, 640 Кбит/сек
Субтитры: Русские (Forced), Английские (SDH)
Реклама: Отсутствует
Работа со звуком - itunestv.

    01. Pilot / Пилот
    02. Black Bear / Бурый барибал
    03. The Ambassador's Wife / Жена посла
    04. Confessions / Признания

General
Unique ID : 91089246726445008029003875620569070819 (0x4487269A0E6EA713FC0C9B7273A1BCE3)
Complete name : The.Enemy.Within.S01E01.Pilot.1080p.AMZN.WEB-DL.H.264.RUS.LF.DDP5.1-EniaHD.mkv
Format : Matroska
Format version : Version 4 / Version 2
File size : 3.29 GiB
Duration : 43 min 42 s
Overall bit rate : 10.8 Mb/s
Movie name : The Enemy Within, Season 1 / Pilot
Track name/Position : 1
Description : Erica Shepherd is a brilliant former CIA operative, now known as the most notorious traitor in American history serving life in a Supermax prison. Against every fiber of his being but with nowhere else to turn, FBI Agent Will Keaton enlists Shepherd to help track down a fiercely dangerous and elusive criminal she knows all too well. For Keaton, it's not easy to trust the woman who cost him so much. While Shepherd and Keaton have different motivations for bringing the enemy to justice, they both know that to catch a spy... they must think like one.
Released date : UTC 2019-02-26 03:00:00
Writing application : mkvmerge v30.1.0 ('Forever And More') 64-bit
Writing library : libebml v1.3.6 + libmatroska v1.4.9
Copyright : aXR1bmVzdHZAZW5pYWhkLmNvbQ==
Cover : Yes
Attachments : small_cover.jpg / cover.jpg

Video
ID : 1
Format : AVC
Format/Info : Advanced Video Codec
Format profile : High@L4
Format settings : CABAC / 4 Ref Frames
Format settings, CABAC : Yes
Format settings, RefFrames : 4 frames
Codec ID : V_MPEG4/ISO/AVC
Duration : 43 min 42 s
Bit rate mode : Constant
Bit rate : 9 486 kb/s
Nominal bit rate : 10 000 kb/s
Width : 1 920 pixels
Height : 1 080 pixels
Display aspect ratio : 16:9
Frame rate mode : Constant
Frame rate : 23.976 (24000/1001) FPS
Color space : YUV
Chroma subsampling : 4:2:0
Bit depth : 8 bits
Scan type : Progressive
Bits/(Pixel*Frame) : 0.191
Stream size : 2.90 GiB (88%)
Language : English
Default : Yes
Forced : No
Color range : Limited
Color primaries : BT.709
Transfer characteristics : BT.709
Matrix coefficients : BT.709

Audio #1
ID : 2
Format : E-AC-3
Format/Info : Enhanced Audio Coding 3
Format settings, Endianness : Big
Codec ID : A_EAC3
Duration : 43 min 42 s
Bit rate mode : Constant
Bit rate : 640 kb/s
Channel(s) : 6 channels
Channel positions : Front: L C R, Side: L R, LFE
Sampling rate : 48.0 kHz
Frame rate : 187.500 FPS (256 SPF)
Compression mode : Lossy
Stream size : 200 MiB (6%)
Title : E-AC3 5.1 @ 640 kbps - MVO, Lostfilm
Language : Russian
Service kind : Complete Main
Default : Yes
Forced : No
Released date : UTC 2019-03-12 13:42:24

Audio #2
ID : 3
Format : E-AC-3
Format/Info : Enhanced Audio Coding 3
Format settings, Endianness : Big
Codec ID : A_EAC3
Duration : 43 min 42 s
Bit rate mode : Constant
Bit rate : 640 kb/s
Channel(s) : 6 channels
Channel positions : Front: L C R, Side: L R, LFE
Sampling rate : 48.0 kHz
Frame rate : 187.500 FPS (256 SPF)
Compression mode : Lossy
Stream size : 200 MiB (6%)
Title : E-AC3 5.1 @ 640 kbps - Original
Language : English
Service kind : Complete Main
Default : No
Forced : No

Text #1
ID : 4
Format : UTF-8
Codec ID : S_TEXT/UTF8
Codec ID/Info : UTF-8 Plain Text
Duration : 33 min 31 s
Bit rate : 5 b/s
Count of elements : 19
Stream size : 1.39 KiB (0%)
Title : Forced
Language : Russian
Default : Yes
Forced : Yes

Text #2
ID : 5
Format : UTF-8
Codec ID : S_TEXT/UTF8
Codec ID/Info : UTF-8 Plain Text
Duration : 43 min 8 s
Bit rate : 72 b/s
Count of elements : 820
Stream size : 22.8 KiB (0%)
Title : SDH
Language : English
Default : No
Forced : No
скриншот  скриншот  скриншот  
pb.wtf



Скачать Враг внутри через торрент https://i110.fastpic.ru/big/2019/0302/06/5cb9ef4692fcb9a1896f03828ecd9d06.png Скачать фильм Враг внутри через торрент бесплантно в хорошем качестве Описание: Эрику Шепард — бывшего агента ЦРУ и изменницу родины — освобождают из тюрьмы. Вместе с агентом ФБР Уиллом Китоном она должна ... 7.3 10 3
Торрент: Зарегистрирован [2019-05-23 10:44] · скачан: 6 раз
Статус: √ проверено
Размер: 41.66 GB
Как cкачать? Как скачать Враг внутри через торрент | qTorrent

% Раздел Тема Автор DL S | L
Зарубежные сериалы [ 40.73 GB ] Враг внутри / The Enemy Within / Сезон: 1 / Серии: 1-13 из 13 [2019 WEB-DL 1080p] [MVO] killermax2013 Скачать
1 | 0
Зарубежные сериалы [ 41.34 GB ] Враг внутри / The Enemy Within / Сезон: 1 / Серии: 1-13 из 13 [2019 WEBRip 1080p] [MVO] killermax2013 Скачать
1 | 0


>> Регистрируемся здесь <<






Отзывы и комментарии о схеме читаем и пишем здесь: ---> Отзывы и комментарии о схеме

Новые благодарочки в телеграм довольных пользователей:
скриншот   скриншот   скриншот   скриншот   скриншот
    Дорогой пользователь! Огромная просьба, поблагодарите релизера, оцените раздачу и оставьте свои комментарий, если Вы скачали Враг внутри через торрент бесплатно! Внесите свою лепту в развитие PiratBit!
    Комментировать посты могут только пользователи прошедшие не сложную регистрацию
    Показать сообщения:    

    Враг внутри через торрент
    Скачать бесплатно Враг внутри
    Враг внутри скачать торрент
    Враг внутри смотреть онлайн
    Cкачать фильм Враг внутри бесплатно
    Враг внутри скачать торрент в хорошем качестве
    Враг внутри смотреть онлайн бесплатно в хорошем качестве


    Вы не можете начинать темы
    Вы не можете отвечать на сообщения
    Вы не можете редактировать свои сообщения
    Вы не можете удалять свои сообщения
    Вы не можете голосовать в опросах
    Вы не можете прикреплять файлы к сообщениям
    Вы можете скачивать файлы