Ссылка на приватное зеркало всего за 1$. Внимание количество ограничено!!!

OK

1+1

iTunes

мы

OK

1

WEB-DLRip

Джокер

Пифагор

Ведьмак / The Witcher сериал

Лицензия

ПШазам

ОК

Оно 2

iTunes

30
pack

Вам бонус

ВАЖНО

!!Акция!!

Alien_RageХит недели

RePack

Resident Evil 21

ИГРА 18+

pack

RePack

jed

!!Акция!!

Alien_Rage

RePack

fifa19

RePack

Assassins Creed: Odyssey

RePack

NEED FOR SPEED™ PAYBACK

4 сезон

9 сезон

Бесстыжие 9 сезон

Все сериалы

все сериалы на PB.wtf

RePack

FAR CRY 5
  

Богемская рапсодия / Bohemian Rhapsody (Брайан Сингер) [2018, драма, биография, музыка, BDRip - HEVC 1080p 12 bit 60 FPS] DUB - [Лицензия / iTunes] pb.wtf

Богемская рапсодия через торрент pb.wtf

Раздают: 2 [ 0 KB/s ]
Размер: 5.02 GB | Добавлен: 10 мес. назад | Торрент скачан:294 раза
Скачать  

14-03-2019 16:39 Богемская рапсодия Скачать торрент  

Богемская рапсодия / Bohemian Rhapsody
««Круче их музыки только их история»»

Год выпуска: 2018
Страна: Великобритания, США
Жанр: драма, биография, музыка

Продолжительность: 02:14:37
Перевод: Дубляж - [Лицензия / iTunes]
Субтитры: русские, английские (Full)
Режиссер: Брайан Сингер
В ролях:

Рами Малек (Freddie Mercury), Люси Бойнтон (Mary Austin), Гвилим Ли (Brian May), Бен Харди (Roger Taylor), Джозеф Маццелло (John Deacon), Эйдан Гиллен (John Reid), Аллен Лич (Paul Prenter), Том Холландер (Jim Beach), Майк Майерс (Ray Foster), Аарон МакКаскер (Jim Hutton), Менека Дас (Jer Bulsara), Эйс Бхатти (Bomi Bulsara)
Описание:
Чествование группы Queen, их музыки и их выдающегося вокалиста Фредди Меркьюри, который бросил вызов стереотипам и победил условности, чтобы стать одним из самых любимых артистов на планете. Фильм прослеживает головокружительный путь группы к успеху благодаря их культовым песням и революционному звуку, практически распад коллектива, поскольку образ жизни Меркьюри выходит из-под контроля, и их триумфальное воссоединение накануне концерта Live Aid, ставшим одним из величайших выступлений в истории рок-музыки.
Мировая премьера: 23 октября 2018

Качество: BDRip 1080p Rip by DD2D3
Формат: MKV
Видео: V_MPEGH/ISO/HEVC, 1920x804 (2.40:1), 4437 kbps, 59,940 fps, 0,048 bpp
Аудио №1: русский / AC3 / 5.1 / 48 kHz / 448 kbps / ||
Аудио №2: английский / AC3 / 5.1 / 48 kHz / 448 kbps /



Общее
Уникальный идентификатор : 245556903255963804341280319244547050886 (0xB8BC8A0FC5B4B2119AFDCB7AC4A2CD86)
Полное имя : D:\Богемская рапсодия - Bohemian Rhapsody (2018) BDRip - HEVC 1080p 12 bit 60 FPS.mkv
Формат : Matroska
Версия формата : Version 4
Размер файла : 5,02 Гбайт
Продолжительность : 2 ч. 14 м.
Общий поток : 5338 Кбит/сек
Название фильма : Rip by DD2D3
Дата кодирования : UTC 2019-03-13 15:19:39
Программа кодирования : mkvmerge v10.0.0 ('To Drown In You') 32bit
Библиотека кодирования : libebml v1.3.4 + libmatroska v1.4.5
Attachments : poster

Видео
Идентификатор : 1
Формат : HEVC
Формат/Информация : High Efficiency Video Coding
Профиль формата : @L4.1@Main
Идентификатор кодека : V_MPEGH/ISO/HEVC
Продолжительность : 2 ч. 14 м.
Битрейт : 4438 Кбит/сек
Ширина : 1920 пикселей
Высота : 804 пикселя
Соотношение сторон : 2,40:1
Режим частоты кадров : Постоянный
Частота кадров : 59,940 (60000/1001) кадров/сек
Цветовое пространство : YUV
Субдискретизация насыщенности : 4:2:0
Битовая глубина : 12 бит
Бит/(Пиксели*Кадры) : 0.048
Размер потока : 4,17 Гбайт (83%)
Библиотека кодирования : x265 2.3+33-0b7d54dbb71a87a0:[Windows][MSVC 1800][64 bit] 12bit: KG7x [x265.ru]
Настройки программы : cpuid=1173503 / frame-threads=2 / numa-pools=4 / wpp / no-pmode / no-pme / no-psnr / no-ssim / log-level=2 / input-csp=1 / input-res=1920x804 / interlace=0 / total-frames=484136 / level-idc=41 / high-tier=1 / uhd-bd=0 / ref=3 / no-allow-non-conformance / no-repeat-headers / annexb / no-aud / no-hrd / info / hash=0 / no-temporal-layers / open-gop / min-keyint=25 / keyint=250 / bframes=4 / b-adapt=2 / b-pyramid / bframe-bias=0 / rc-lookahead=20 / lookahead-slices=5 / scenecut=40 / no-intra-refresh / ctu=64 / min-cu-size=8 / no-rect / no-amp / max-tu-size=32 / tu-inter-depth=1 / tu-intra-depth=1 / limit-tu=0 / rdoq-level=0 / dynamic-rd=0.00 / no-ssim-rd / signhide / no-tskip / nr-intra=0 / nr-inter=0 / no-constrained-intra / strong-intra-smoothing / max-merge=2 / limit-refs=3 / no-limit-modes / me=1 / subme=2 / merange=57 / temporal-mvp / weightp / no-weightb / no-analyze-src-pics / deblock=0:0 / no-sao / no-sao-non-deblock / rd=3 / no-early-skip / no-rskip / no-fast-intra / no-tskip-fast / no-cu-lossless / no-b-intra / rdpenalty=0 / psy-rd=4.00 / psy-rdoq=0.00 / no-rd-refine / analysis-mode=0 / no-lossless / cbqpoffs=0 / crqpoffs=0 / rc=abr / bitrate=4438 / qcomp=0.60 / qpstep=1 / stats-write=0 / stats-read=2 / cplxblur=20.0 / qblur=0.5 / ipratio=1.10 / pbratio=1.00 / aq-mode=0 / aq-strength=0.00 / no-cutree / zone-count=0 / no-strict-cbr / qg-size=64 / rc-grain / qpmax=69 / qpmin=0 / sar=1 / overscan=0 / videoformat=5 / range=0 / colorprim=2 / transfer=2 / colormatrix=2 / chromaloc=0 / display-window=0 / max-cll=0,0 / min-luma=0 / max-luma=4095 / log2-max-poc-lsb=8 / vui-timing-info / vui-hrd-info / slices=1 / opt-qp-pps / opt-ref-list-length-pps / no-multi-pass-opt-rps / scenecut-bias=0.05 / no-opt-cu-delta-qp / no-aq-motion / no-hdr / no-hdr-opt / refine-level=5 / no-limit-sao
Default : Да
Forced : Нет

Аудио #1
Идентификатор : 2
Формат : AC-3
Формат/Информация : Audio Coding 3
Коммерческое название : Dolby Digital
Идентификатор кодека : A_AC3
Продолжительность : 2 ч. 14 м.
Вид битрейта : Постоянный
Битрейт : 448 Кбит/сек
Каналы : 6 каналов
Channel layout : L R C LFE Ls Rs
Частота : 48,0 КГц
Частота кадров : 31,250 кадров/сек (1536 SPF)
Битовая глубина : 16 бит
Метод сжатия : С потерями
Размер потока : 431 Мбайт (8%)
Заголовок : Dub | DD 5.1 @ 448 kbps - Blu-ray CEE
Язык : Russian
ServiceKind/String : Complete Main
Default : Да
Forced : Нет

Аудио #2
Идентификатор : 3
Формат : AC-3
Формат/Информация : Audio Coding 3
Коммерческое название : Dolby Digital
Идентификатор кодека : A_AC3
Продолжительность : 2 ч. 14 м.
Вид битрейта : Постоянный
Битрейт : 448 Кбит/сек
Каналы : 6 каналов
Channel layout : L R C LFE Ls Rs
Частота : 48,0 КГц
Частота кадров : 31,250 кадров/сек (1536 SPF)
Битовая глубина : 16 бит
Метод сжатия : С потерями
Размер потока : 431 Мбайт (8%)
Заголовок : Original | DD 5.1 @ 448 kbps
Язык : English
ServiceKind/String : Complete Main
Default : Нет
Forced : Нет

Текст #1
Идентификатор : 4
Формат : UTF-8
Идентификатор кодека : S_TEXT/UTF8
Идентификатор кодека/Информация : UTF-8 Plain Text
Продолжительность : 2 ч. 13 м.
Битрейт : 72 бит/сек
ElementCount : 1753
Размер потока : 70,7 Кбайт (0%)
Язык : Russian
Default : Нет
Forced : Нет

Текст #2
Идентификатор : 5
Формат : UTF-8
Идентификатор кодека : S_TEXT/UTF8
Идентификатор кодека/Информация : UTF-8 Plain Text
Продолжительность : 2 ч. 6 м.
Битрейт : 63 бит/сек
ElementCount : 2063
Размер потока : 58,5 Кбайт (0%)
Заголовок : Full
Язык : English
Default : Нет
Forced : Нет
скриншот  скриншот  скриншот  скриншот  

© Оформление by DD2D3 pb.wtf



Скачать Богемская рапсодия через торрент http://funkyimg.com/i/2SiRe.jpg Скачать фильм Богемская рапсодия через торрент бесплантно в хорошем качестве Описание: Чествование группы Queen, их музыки и их выдающегося вокалиста Фредди Меркьюри, который бросил вызов стереоам и победил ... 9.8 10 13
Info! Золотая раздача, скачанное не засчитывается.
Торрент: Зарегистрирован [2019-03-14 16:39] · скачан: 294 раз
Статус: √ проверено
Размер: 5.02 GB
Как cкачать? Как скачать Богемская рапсодия через торрент | qTorrent

% Раздел Тема Автор DL S | L
Фильмы [HD 720p, 1080p] (Хороший звук DUB, MVO) [ 14.09 GB ] Богемская рапсодия / Bohemian Rhapsody [2018 биография музыка BDRip 1080p] DUB [] bober100 Скачать
3 | 0
Фильмы 2018 [DVDrip, WEB-DLRip, HDrip] (DUB, MVO) [ 1.46 GB ] Богемская рапсодия / Bohemian Rhapsody [2018 биография музыка BDRip] - [] Twi7ter Скачать
5 | 0
Ultra HD (UHD: 2K, 4K, 8K) — видео сверхвысокой чёткости [ 25.78 GB ] Богемская рапсодия / Bohemian Rhapsody [2018 биография музыка UHD BDRip 2160p] [HDR10 sheker187 Скачать
2 | 0
Фильмы (WEB-DL 720p, 1080p) [ 7.67 GB ] Богемская рапсодия / Bohemian Rhapsody [2018 биография музыка WEB-DL 1080p] [AMAZON Version] DUB bober100 Скачать
11 | 0
Фильмы [HD 720p, 1080p] (Хороший звук DUB, MVO) [ 5.52 GB ] Богемская рапсодия / Bohemian Rhapsody [2018 биография музыка BDRip 720p Dub MVO AVO] от ExKinoRay morfyi Скачать
10 | 0
Фильмы 2018 [DVDrip, WEB-DLRip, HDrip] (DUB, MVO) [ 3.46 GB ] Богемская рапсодия / Bohemian Rhapsody [2018 биография музыка BDRip-AVC] AVO [М.Яроцкий] +DUB [] bober100 Скачать
1 | 0
Ultra HD (UHD: 2K, 4K, 8K) — видео сверхвысокой чёткости [ 41.14 GB ] Богемская рапсодия / Bohemian Rhapsody [2018 биография музыка UHD BDRemux 2160p] [] sheker187 Скачать
2 | 0

28-11-2019 20:33  

Отключить всю рекламу на сайте

05-04-2019 07:00 Богемская рапсодия Скачать торрент  

Блин, фильм реально очень крутой!!!pb.wtf



06-04-2019 16:28 Богемская рапсодия Скачать торрент  

очень мощный фильм,вызывающий кучу эмоций и толпы мурашек на коже)pb.wtf



07-04-2019 01:42 Богемская рапсодия Скачать торрент  

Они могли бы опубликовать его в 10-битном формате HEVC, мой TV ANDROID BOX не поддерживает 12 бит.pb.wtf



    Дорогой пользователь! Огромная просьба, поблагодарите релизера, оцените раздачу и оставьте свои комментарий, если Вы скачали Богемская рапсодия через торрент бесплатно! Внесите свою лепту в развитие PiratBit!
    Комментировать посты могут только пользователи прошедшие не сложную регистрацию
    Показать сообщения:    

    Богемская рапсодия через торрент
    Скачать бесплатно Богемская рапсодия
    Богемская рапсодия скачать торрент
    Богемская рапсодия смотреть онлайн
    Cкачать фильм Богемская рапсодия бесплатно
    Богемская рапсодия скачать торрент в хорошем качестве
    Богемская рапсодия смотреть онлайн бесплатно в хорошем качестве


    Вы не можете начинать темы
    Вы не можете отвечать на сообщения
    Вы не можете редактировать свои сообщения
    Вы не можете удалять свои сообщения
    Вы не можете голосовать в опросах
    Вы не можете прикреплять файлы к сообщениям
    Вы можете скачивать файлы