новый адрес
Ссылка на приватное зеркало всего за 1$. Внимание количество ограничено!!!

iTunes

1+1

iTunes

мы

WEB-DL

1

iTunes

Чернобыль

iTunes

Ральф против интернета

Лицензия

ПШазам

Лицензия

Оно 2

Лицензия

30
pack

Вам бонус

ВАЖНО

!!Акция!!

Alien_RageХит недели

RePack

Resident Evil 21

ИГРА 18+

pack

RePack

jed

!!Акция!!

Alien_Rage

RePack

fifa19

RePack

Assassins Creed: Odyssey

RePack

NEED FOR SPEED™ PAYBACK

3 сезон

9 сезон

Бесстыжие 9 сезон

Все сериалы

все сериалы на PB.wtf

RePack

FAR CRY 5
Ребята, катастрофически не хватает 1900р. для оплаты серверов за Октябрь (всвязи с блокировками трафик упал в 3 раза), 1-2р., выручайте.
  

Любовник моей жены / Amoureux de ma femme (Даниель Отой) [2018, драма, мелодрама, комедия, BDRip-AVC] DUB [iTunes] pb.wtf

Любовник моей жены через торрент pb.wtf

Размер: 1.54 GB | Добавлен: 1 год 1 мес. назад | Торрент скачан:146 раз
Скачать  

24-10-2018 13:26 Любовник моей жены Скачать торрент  

Любовник моей жены / Amoureux de ma femme
Год выпуска: 2018
Страна: Франция, Бельгия
Жанр: драма, мелодрама, комедия
Продолжительность: 01:25:59
Перевод: Дублированный | iTunes
Субтитры: отсутствуют

Режиссер: Даниель Отой

rating

В ролях:

Сандрин Киберлэн, Адриана Угарте, Жерар Депардье, Даниель Отой, Бриджитт Обри, Джон Сехил

Описание:

Даниэль очень любит свою жену и наслаждается семейным уютом, но все рушится в один прекрасный день, когда лучший друг Патрик настаивает на парном ужине, на который приводит свою новую девушку. Эмма оказывается молодой красавицей и сразу покоряет нашего героя. И вот он уже не видит перед собой: ни друга, ни обеденного стола, не слышит разговор и полностью окунается в мир собственных фантазий, где видит только ее карие глаза, соблазнительную улыбку и плавные волнующие изгибы.

Качество: BDRip-AVC
Формат: MKV

Видео: 1024x554 (1.85:1), 23,976 fps, x264 ~2 171 kbps avg, 0.160 bit/pixel
Аудио: 48 kHz, AC3 Dolby Digital, 3/2 (L,C,R,l,r) + LFE ch, ~384.00 kbps avg | RUS (iTunes)
скриншот  скриншот  скриншот  скриншот  скриншот  

Общее
Уникальный идентификатор : 198878225701663829359365090139614268590 (0x959E8D927E01941A8C353EFF5B10CCAE)
Полное имя : F:\OlLanDGroup\Amoureux.de.Ma.Femme.2018.BDRip(AVC).OlLanDGroup.mkv
Формат : Matroska
Версия формата : Version 4 / Version 2
Размер файла : 1,54 Гбайт
Продолжительность : 1 ч. 25 м.
Общий поток : 2556 Кбит/сек
Название фильма : Amoureux.de.Ma.Femme.2018 #TorpedoUK#
Дата кодирования : UTC 2018-10-24 12:03:00
Программа кодирования : mkvmerge v25.0.0 ('Prog Noir') 64-bit
Библиотека кодирования : libebml v1.3.6 + libmatroska v1.4.9

Видео
Идентификатор : 1
Формат : AVC
Формат/Информация : Advanced Video Codec
Профиль формата : High@L4.1
Параметр CABAC формата : Да
Параметр ReFrames формата : 10 кадров
Идентификатор кодека : V_MPEG4/ISO/AVC
Продолжительность : 1 ч. 25 м.
Битрейт : 2171 Кбит/сек
Ширина : 1024 пикселя
Высота : 554 пикселя
Соотношение сторон : 1,85:1
Режим частоты кадров : Постоянный
Частота кадров : 23,976 (24000/1001) кадра/сек
Цветовое пространство : YUV
Субдискретизация насыщенности : 4:2:0
Битовая глубина : 8 бит
Тип развёртки : Прогрессивная
Бит/(Пиксели*Кадры) : 0.160
Размер потока : 1,30 Гбайт (85%)
Библиотека кодирования : x264 core 146 r2538 121396c
Настройки программы : cabac=1 / ref=10 / deblock=1:-3:-3 / analyse=0x3:0x113 / me=umh / subme=11 / psy=1 / psy_rd=0.98:0.04 / mixed_ref=1 / me_range=48 / chroma_me=1 / trellis=2 / 8x8dct=1 / cqm=0 / deadzone=21,11 / fast_pskip=1 / chroma_qp_offset=-3 / threads=6 / lookahead_threads=1 / sliced_threads=0 / nr=0 / decimate=1 / interlaced=0 / bluray_compat=0 / constrained_intra=0 / bframes=10 / b_pyramid=2 / b_adapt=2 / b_bias=0 / direct=3 / weightb=1 / open_gop=0 / weightp=2 / keyint=240 / keyint_min=23 / scenecut=40 / intra_refresh=0 / rc_lookahead=40 / rc=2pass / mbtree=0 / bitrate=2171 / ratetol=1.0 / qcomp=0.60 / qpmin=0 / qpmax=69 / qpstep=4 / cplxblur=20.0 / qblur=0.5 / vbv_maxrate=50000 / vbv_bufsize=62500 / nal_hrd=none / filler=0 / ip_ratio=1.40 / pb_ratio=1.30 / aq=1:1.00
Язык : English
Default : Да
Forced : Нет

Аудио
Идентификатор : 2
Формат : AC-3
Формат/Информация : Audio Coding 3
Расширение режима : CM (complete main)
Параметр Endianness формата : Big
Идентификатор кодека : A_AC3
Продолжительность : 1 ч. 25 м.
Вид битрейта : Постоянный
Битрейт : 384 Кбит/сек
Каналы : 6 каналов
Расположение каналов : Front: L C R, Side: L R, LFE
Частота : 48,0 КГц
Частота кадров : 31,250 кадров/сек (1536 spf)
Битовая глубина : 16 бит
Метод сжатия : С потерями
Размер потока : 236 Мбайт (15%)
Заголовок : DUB [iTunes]
Язык : Russian
Default : Да
Forced : Нет

Меню
00:00:00.000 : en:Chapter 1
00:09:52.091 : en:Chapter 2
00:19:11.567 : en:Chapter 3
00:30:55.769 : en:Chapter 4
00:42:41.891 : en:Chapter 5
00:53:25.994 : en:Chapter 6
01:03:32.641 : en:Chapter 7
01:12:13.119 : en:Chapter 8
01:22:02.876 : en:Chapter 9

pb.wtf



Скачать Любовник моей жены через торрент https://c.radikal.ru/c03/1810/23/ed494baa777a.png Скачать фильм Любовник моей жены через торрент бесплантно в хорошем качестве Описание: Даниэль очень любит свою жену и наслаждается семейным уютом, но все рушится в один прекрасный день, когда лучший друг Патрик ... 10 10 3
Торрент: Зарегистрирован [2018-10-24 13:26] · скачан: 146 раз
Статус: √ проверено
Размер: 1.54 GB
Как cкачать? Как скачать Любовник моей жены через торрент | qTorrent

% Раздел Тема Автор DL S | L
Фильмы 2018 [DVDrip, WEB-DLRip, HDrip] (DUB, MVO) [ 1.42 GB ] Любовник моей жены / Amoureux de ma femme [2018 BDRip] - Twi7ter Скачать
1 | 0
Фильмы 2018 [DVDrip, WEB-DLRip, HDrip] (DUB, MVO) [ 1.42 GB ] Любовник моей жены / Amoureux de ma femme [2018 BDRip] bober100 Скачать
2 | 0
Фильмы 2018 [DVDrip, WEB-DLRip, HDrip] (DUB, MVO) [ 747 MB ] Любовник моей жены / Amoureux de ma femme [2018 BDRip] bober100 Скачать
2 | 0
Фильмы (Blu-ray, BD-Remux, HDDVD) [ 20.09 GB ] Любовник моей жены / Amoureux de ma femme [2018 BD Remux 1080p] bober100 Скачать
1 | 0

28-11-2019 20:33  

Отключить всю рекламу на сайте

24-10-2018 17:18 Любовник моей жены Скачать торрент  

Два старых козла.pb.wtf



04-11-2018 14:14 Любовник моей жены Скачать торрент  

Про старую кошелку и мужика тряпку.pb.wtf



    Дорогой пользователь! Огромная просьба, поблагодарите релизера, оцените раздачу и оставьте свои комментарий, если Вы скачали Любовник моей жены через торрент бесплатно! Внесите свою лепту в развитие PiratBit!
    Комментировать посты могут только пользователи прошедшие не сложную регистрацию
    Показать сообщения:    

    Любовник моей жены через торрент
    Скачать бесплатно Любовник моей жены
    Любовник моей жены скачать торрент
    Любовник моей жены смотреть онлайн
    Cкачать фильм Любовник моей жены бесплатно
    Любовник моей жены скачать торрент в хорошем качестве
    Любовник моей жены смотреть онлайн бесплатно в хорошем качестве


    Вы не можете начинать темы
    Вы не можете отвечать на сообщения
    Вы не можете редактировать свои сообщения
    Вы не можете удалять свои сообщения
    Вы не можете голосовать в опросах
    Вы не можете прикреплять файлы к сообщениям
    Вы можете скачивать файлы