>

7.4

iTunes

7.4

2 сезон

9.4

1 сезон

1

7.4

2 сезон

7.2

iTunes

6.0

MVO

13

6.1

iTunes

8.3

Пиратка

30

ULTIMATE

pack

9.9

Лицензия

ВАЖНО

ИГРА 18+

pack

7.3

RePack

MK11

7.7

RePack

jed

7.8

RePack

fifa19

8.5

RePack

RDR2

RePack

NEED FOR SPEED™ PAYBACK

1 сезон

9 сезон

Бесстыжие 9 сезон

Все сериалы

все сериалы на PB.wtf

RePack

FAR CRY 5

Anonymous, доброе утро, мы катастрофически не успеваем собрать деньги на оплату серверов, помогите нам пожалуйста 5,10,15р., для нас важна любая помощь . В качестве благодарности мы отключим Вам всю рекламу на сайте (укажите свой ник в строку Ваше имя)!

×
  
Magnet ссылка

Ядовитый плющ / Poison Ivy (Кэтт Ши Рубен) [1992 г., триллер, драма, DVDRip] 2xAVO (Вартан Дохалов, Михаил Иванов) pb.wtf

Ядовитый плющ через торрент pb.wtf

Размер: 1.46 GB | Добавлен: 2 года 10 мес. назад | Торрент скачан:6 раз
Смотреть онлайн Ядовитый плющ | Скачать    Ребята, помогите собрать деньги на оплату серверов!!!

14-03-2019 19:43 Ядовитый плющ Скачать торрент  

Ядовитый плющ / Poison Ivy Год выпуска: 1992

Страна: США

Жанр: Триллер, драма

Продолжительность: 01:34:07

Перевод: авторский (одноголосый)

Режиссер: Кэтт Ши Рубен

rating

В ролях: Сара Гилберт, Дрю Бэрримор, Том Скерритт, Шерил ЛэддАлан, СтокДжинн Саката, Э.Дж. Мур, Дж.Б. Квон, Леонардо ДиКаприо, Майкл Голднер

Описание: В привилегированной частной школе учатся две девушки, которых объединяет, пожалуй, только ненависть ко всему человечеству. Одна из них, Сильвия Купер, дочка известного продюсера, однажды звонит на телеканал, где работает ее отец, и сообщает о том, что в здании заложена бомба. Эта ужасная выходка привлекает к Сильвии внимание Айви. Айви — сирота, живёт на попечении небогатой тёти. В частную школу она смогла попасть только благодаря специальной стипендии. Сильвия и Айви становятся подругами. Айви переезжает из дома тёти в шикарное жилище Сильвии и её родителей, нахально и цепко, как ядовитый плющ, она внедряется в чужую семью...
Качество: DVDRip
Формат: AVI
Видео кодек: XviD
Аудио кодек: AC3

Видео: XviD, 1819 Кбит/с, 640x480
Аудио#1: Русский, AC3, 2 ch, 192 Кбит/с - AVO (Вартан Дохалов)
Аудио#2: Русский, AC3, 2 ch, 192 Кбит/с - AVO (Михаил Иванов)
Видео
Идентификатор : 0
Формат : MPEG-4 Visual
Профиль формата : Advanced Simple@L5
Настройки формата : BVOP2 / Custom Matrix
Параметр BVOP формата : 2
Параметр QPel формата : Нет
Параметр GMC формата : Без точки перехода
Параметр матрицы формата : Выборочная
Идентификатор кодека : XVID
Идентификатор кодека/Подсказка : XviD
Продолжительность : 1 ч. 34 м.
Битрейт : 1819 Кбит/сек
Ширина : 640 пикселей
Высота : 480 пикселей
Соотношение сторон : 4:3
Частота кадров : 23,976 (24000/1001) кадра/сек
Цветовое пространство : YUV
Субдискретизация насыщенности : 4:2:0
Битовая глубина : 8 бит
Тип развёртки : Прогрессивная
Метод сжатия : С потерями
Бит/(Пиксели*Кадры) : 0.247
Размер потока : 1,20 Гбайт (82%)
Библиотека кодирования : XviD 73

Аудио #1
Идентификатор : 1
Формат : AC-3
Формат/Информация : Audio Coding 3
Коммерческое название : Dolby Digital
Идентификатор кодека : 2000
Продолжительность : 1 ч. 34 м.
Вид битрейта : Постоянный
Битрейт : 192 Кбит/сек
Каналы : 2 канала
Channel layout : L R
Частота : 48,0 КГц
Частота кадров : 31,250 кадров/сек (1536 SPF)
Битовая глубина : 16 бит
Метод сжатия : С потерями
Размер потока : 129 Мбайт (9%)
Выравнивание : Разделение по промежуткам
Продолжительность промежутка : 42 мс. (1,00 видеокадр)
Время предзагрузки промежутка : 500 мс.
Заголовок : Дохалов
ServiceKind/String : Complete Main

Аудио #2
Идентификатор : 2
Формат : AC-3
Формат/Информация : Audio Coding 3
Коммерческое название : Dolby Digital
Идентификатор кодека : 2000
Продолжительность : 1 ч. 34 м.
Вид битрейта : Постоянный
Битрейт : 192 Кбит/сек
Каналы : 2 канала
Channel layout : L R
Частота : 48,0 КГц
Частота кадров : 31,250 кадров/сек (1536 SPF)
Битовая глубина : 16 бит
Метод сжатия : С потерями
Размер потока : 129 Мбайт (9%)
Выравнивание : Разделение по промежуткам
Продолжительность промежутка : 42 мс. (1,00 видеокадр)
Время предзагрузки промежутка : 500 мс.
Заголовок : Иванов
ServiceKind/String : Complete Main

скриншот   скриншот   скриншот   скриншот   скриншот  

pb.wtf



Скачать Ядовитый плющ через торрент https://i2.imageban.ru/out/2019/03/14/e24b278384f13b5ce36a09c68603271b.gif Скачать, смотреть онлайн Ядовитый плющ бесплантно в хорошем качестве Описание: В привилегированной частной школе учатся две девушки, которых объединяет, пожалуй, только ненависть ко всему человечеству. Одна ... 5 10 1
Торрент: Зарегистрирован [2019-03-14 19:43] · скачан: 6 раз
Статус: √ проверено
Размер: 1.46 GB
Как cкачать? Как скачать Ядовитый плющ через торрент | UTorrent

% Раздел Тема Автор DL S | L
Фильмы (Blu-ray, BD-Remux, HDDVD) [ 20.74 GB ] Ядовитый плющ / Poison Ivy [1992 Blu-Ray Remux 1080p] MVO 2xAVO Леонид Ильич Скачать
1 | 0

28-11-2019 20:33  

Отключить всю рекламу на сайте

    Дорогой пользователь! Огромная просьба, поблагодарите релизера, оцените раздачу и оставьте свои комментарий, если Вы скачали Ядовитый плющ через торрент бесплатно!
    Комментировать посты могут только пользователи прошедшие не сложную регистрацию
    Показать сообщения:    

    Ядовитый плющ через торрент
    Скачать бесплатно Ядовитый плющ
    Ядовитый плющ скачать торрент
    Ядовитый плющ смотреть онлайн
    Cкачать фильм Ядовитый плющ бесплатно
    Ядовитый плющ скачать торрент в хорошем качестве
    Ядовитый плющ смотреть онлайн бесплатно в хорошем качестве


    Вы не можете начинать темы
    Вы не можете отвечать на сообщения
    Вы не можете редактировать свои сообщения
    Вы не можете удалять свои сообщения
    Вы не можете голосовать в опросах
    Вы не можете прикреплять файлы к сообщениям
    Вы можете скачивать файлы