Всегда рабочее зеркало без VPN и Proxy просто перед .vidak.icu напиши любое слово или цифру, Пример http://w07h.vidak.icu

MVO

MVO

1 сезон

1

1 сезон

iTunes

1 сезон

13

1 сезон

Deluxe

pack

Рекомендуем

Repack

30

ВАЖНО

RePack

MK11

RePack

jed

RePack

fifa19

RePack

RDR2

RePack

NEED FOR SPEED™ PAYBACK

Кинопоиск HD

6 сезон

 Острые козырьки 6 сезон

Все сериалы

все сериалы на PB.wtf

RePack

FAR CRY 5
  
Magnet ссылка

Тройная граница / Triple Frontier (Джей Си Чендор) [2019, боевик, триллер, драма, UHD WEB-DLRip 2160p] Дубляж [Невафильм] pb.wtf

Тройная граница через торрент pb.wtf

Раздают: 1 [ 0 KB/s ]
Размер: 19.81 GB | Добавлен: 3 года 4 мес. назад | Торрент скачан:282 раза
Смотреть онлайн Тройная граница | Скачать    Ребята, помогите собрать деньги на оплату серверов!!!

15-03-2019 11:14 Тройная граница Скачать торрент  

Тройная граница / Triple Frontier

Год выпуска: 2019
Страна: США
Жанр: боевик, триллер, драма, криминал, приключения
Продолжительность: 02:05:19
Перевод: Дублированный
Субтитры: Русские (Forced, Full), английские
Режиссер: Джей Си Чендор
В ролях:

Бен Аффлек (Tom «Redfly» Davis), Чарли Ханнэм (William «Ironhead» Miller), Адриа Архона (Yovanna), Педро Паскаль (Francisco «Catfish» Morales), Оскар Айзек (Santiago «Pope» Garcia), Гаррет Хедлунд (Ben Miller), Шейла Ванд (Lauren Yates), Рейнальдо Гальегос (Gabriel Martin Lorea), Кристин Хорн (Retainment Officer), Шон МакБрайд (Biker MMA), Chellé Brooks (Actress), Энджел Кристиан Роман (2nd Shooter)
Описание:
Пограничная зона между Парагваем, Аргентиной и Бразилией считается раем для организованной преступности, наркоторговцев и террористов. Долгие годы отряды специального назначения пытались зачистить регион, но безуспешно. Пятеро оперативников устали смотреть, как впустую погибают их коллеги, и решают взять дело в свои руки. Они рассчитывают ограбить местного наркобарона и одним выстрелом убить двух зайцев - лишить крупный картель финансирования и обеспечить себе безбедное существование.
Рейтинг:

MPAA: R - Лицам до 17 лет обязательно присутствие взрослого
Качество: UHD WEB-DLRip 2160p
Формат: MKV
Видео: HEVC HDR, 21.6 Мбит/с, 3840x1822, 24.000 кадр/с, 10 бит
Аудио №1: Русский ( АС3, 6ch, 384 Кбит/с, 48.0 KHz) Профессиональный (дублированный) Невафильм_Netflix
Аудио №2: Английский ( АС3, 6ch, 640 Кбит/с, 48.0 KHz)
***Релиз без рекламы***
Общее
Уникальный идентификатор : 170566475967098377072295024998146574844 (0x8051E88A1BB3B582B9B7A200DE2309FC)
Полное имя : D:\Мои раздачи\Передел\Triple.Frontier.2019.2160p.WEB-DLRip.x265.UHD.HDR.Master5.mkv
Формат : Matroska
Версия формата : Version 4 / Version 2
Размер файла : 19,8 Гбайт
Продолжительность : 2 ч. 5 м.
Общий поток : 22,5 Мбит/сек
Название фильма : Triple.Frontier.2019.2160p.WEB-DLRip.x265.UHD.HDR.Master5
Дата кодирования : UTC 2019-03-15 10:04:10
Программа кодирования : mkvmerge v7.9.0 ('Birds') 64bit
Библиотека кодирования : libebml v1.3.1 + libmatroska v1.4.2

Видео
Идентификатор : 1
Формат : HEVC
Формат/Информация : High Efficiency Video Coding
Коммерческое название : HDR10
Профиль формата : Main [email protected]@High
Идентификатор кодека : V_MPEGH/ISO/HEVC
Продолжительность : 2 ч. 5 м.
Битрейт : 21,6 Мбит/сек
Ширина : 3840 пикселей
Высота : 1822 пикселя
Соотношение сторон : 2,108
Режим частоты кадров : Постоянный
Частота кадров : 24,000 кадра/сек
Цветовое пространство : YUV
Субдискретизация насыщенности : 4:2:0 (Type 2)
Битовая глубина : 10 бит
Бит/(Пиксели*Кадры) : 0.129
Размер потока : 18,9 Гбайт (95%)
Заголовок : Triple.Frontier.2019.2160p.WEB-DLRip.x265.UHD.HDR.Master5
Библиотека кодирования : x265 3.0_Au+14-c7e5878bdd31:[Linux][GCC 8.2.0][64 bit] 10bit
Настройки программы : cpuid=1111039 / frame-threads=5 / wpp / no-pmode / no-pme / no-psnr / no-ssim / log-level=2 / input-csp=1 / input-res=3840x1822 / interlace=0 / total-frames=0 / level-idc=51 / high-tier=1 / uhd-bd=0 / ref=4 / no-allow-non-conformance / repeat-headers / annexb / no-aud / no-hrd / info / hash=0 / no-temporal-layers / open-gop / min-keyint=24 / keyint=250 / gop-lookahead=0 / bframes=11 / b-adapt=2 / b-pyramid / bframe-bias=0 / rc-lookahead=25 / lookahead-slices=4 / scenecut=40 / radl=0 / no-splice / no-intra-refresh / ctu=64 / min-cu-size=8 / rect / no-amp / max-tu-size=32 / tu-inter-depth=1 / tu-intra-depth=1 / limit-tu=0 / rdoq-level=2 / dynamic-rd=0.00 / no-ssim-rd / signhide / no-tskip / nr-intra=0 / nr-inter=0 / no-constrained-intra / no-strong-intra-smoothing / max-merge=3 / limit-refs=3 / limit-modes / me=2 / subme=6 / merange=57 / temporal-mvp / weightp / no-weightb / no-analyze-src-pics / deblock=-3:-3 / no-sao / no-sao-non-deblock / rd=4 / no-early-skip / no-rskip / no-fast-intra / no-tskip-fast / no-cu-lossless / no-b-intra / no-splitrd-skip / rdpenalty=0 / psy-rd=4.00 / psy-rdoq=10.00 / no-rd-refine / no-lossless / cbqpoffs=0 / crqpoffs=0 / rc=crf / crf=19.0 / qcomp=0.60 / qpstep=1 / stats-write=0 / stats-read=0 / vbv-maxrate=160000 / vbv-bufsize=160000 / vbv-init=0.9 / crf-max=0.0 / crf-min=0.0 / ipratio=1.25 / pbratio=1.20 / aq-mode=3 / aq-strength=0.70 / no-cutree / zone-count=0 / no-strict-cbr / qg-size=32 / rc-grain / qpmax=69 / qpmin=0 / const-vbv / sar=1 / overscan=0 / videoformat=5 / range=0 / colorprim=9 / transfer=16 / colormatrix=9 / chromaloc=1 / chromaloc-top=2 / chromaloc-bottom=2 / display-window=0 / master-display=G(13250,34500)B(7500,3000)R(34000,16000)WP(15635,16450)L(40000000,50) / max-cll=1137,210 / min-luma=0 / max-luma=1023 / log2-max-poc-lsb=8 / vui-timing-info / vui-hrd-info / slices=1 / no-opt-qp-pps / no-opt-ref-list-length-pps / no-multi-pass-opt-rps / scenecut-bias=0.05 / no-opt-cu-delta-qp / no-aq-motion / hdr / hdr-opt / no-dhdr10-opt / no-idr-recovery-sei / analysis-reuse-level=5 / scale-factor=0 / refine-intra=0 / refine-inter=0 / refine-mv=0 / refine-ctu-distortion=0 / no-limit-sao / ctu-info=0 / no-lowpass-dct / refine-analysis-type=0 / copy-pic=1 / max-ausize-factor=1.0 / no-dynamic-refine / no-single-sei / no-hevc-aq / no-svt / qp-adaptation-range=1.00
Default : Да
Forced : Нет
Цветовой диапазон : Limited
Основные цвета : BT.2020
Характеристики трансфера : PQ
Коэффициенты матрицы : BT.2020 non-constant
MasteringDisplay_ColorPrimaries : Display P3
MasteringDisplay_Luminance : min: 0.0050 cd/m2, max: 4000 cd/m2
MaxCLL : 1137 cd/m2
MaxFALL : 210 cd/m2

Аудио #1
Идентификатор : 2
Формат : AC-3
Формат/Информация : Audio Coding 3
Идентификатор кодека : A_AC3
Продолжительность : 2 ч. 5 м.
Вид битрейта : Постоянный
Битрейт : 384 Кбит/сек
Каналы : 6 каналов
Расположение каналов : Front: L C R, Side: L R, LFE
Частота : 48,0 КГц
Частота кадров : 31,250 кадров/сек (1536 SPF)
Битовая глубина : 16 бит
Метод сжатия : С потерями
Размер потока : 346 Мбайт (2%)
Заголовок : DUB | Невафильм
Язык : Russian
ServiceKind/String : Complete Main
Default : Да
Forced : Нет

Аудио #2
Идентификатор : 3
Формат : AC-3
Формат/Информация : Audio Coding 3
Идентификатор кодека : A_AC3
Продолжительность : 2 ч. 5 м.
Вид битрейта : Постоянный
Битрейт : 640 Кбит/сек
Каналы : 6 каналов
Расположение каналов : Front: L C R, Side: L R, LFE
Частота : 48,0 КГц
Частота кадров : 31,250 кадров/сек (1536 SPF)
Битовая глубина : 16 бит
Метод сжатия : С потерями
Размер потока : 576 Мбайт (3%)
Язык : English
ServiceKind/String : Complete Main
Default : Нет
Forced : Нет

Текст #1
Идентификатор : 4
Формат : UTF-8
Идентификатор кодека : S_TEXT/UTF8
Идентификатор кодека/Информация : UTF-8 Plain Text
Продолжительность : 2 ч. 4 м.
Битрейт : 6 бит/сек
ElementCount : 169
Размер потока : 6,18 Кбайт (0%)
Заголовок : Forced
Язык : Russian
Default : Да
Forced : Да

Текст #2
Идентификатор : 5
Формат : UTF-8
Идентификатор кодека : S_TEXT/UTF8
Идентификатор кодека/Информация : UTF-8 Plain Text
Продолжительность : 2 ч. 4 м.
Битрейт : 65 бит/сек
ElementCount : 1433
Размер потока : 59,9 Кбайт (0%)
Заголовок : Russian
Язык : Russian
Default : Нет
Forced : Нет

Текст #3
Идентификатор : 6
Формат : UTF-8
Идентификатор кодека : S_TEXT/UTF8
Идентификатор кодека/Информация : UTF-8 Plain Text
Продолжительность : 1 ч. 53 м.
Битрейт : 5 бит/сек
ElementCount : 175
Размер потока : 4,16 Кбайт (0%)
Заголовок : English (Forced)
Язык : English
Default : Нет
Forced : Нет

Текст #4
Идентификатор : 7
Формат : UTF-8
Идентификатор кодека : S_TEXT/UTF8
Идентификатор кодека/Информация : UTF-8 Plain Text
Продолжительность : 1 ч. 56 м.
Битрейт : 49 бит/сек
ElementCount : 1425
Размер потока : 42,2 Кбайт (0%)
Заголовок : English
Язык : English
Default : Нет
Forced : Нет

Текст #5
Идентификатор : 8
Формат : UTF-8
Идентификатор кодека : S_TEXT/UTF8
Идентификатор кодека/Информация : UTF-8 Plain Text
Продолжительность : 1 ч. 57 м.
Битрейт : 64 бит/сек
ElementCount : 1763
Размер потока : 55,6 Кбайт (0%)
Заголовок : English (SDH)
Язык : English
Default : Нет
Forced : Нет
pb.wtf



Скачать Тройная граница через торрент https://c.radikal.ru/c00/1903/b8/632c6465db89.png Скачать, смотреть онлайн Тройная граница бесплантно в хорошем качестве Описание: Пограничная зона между Парагваем, Аргентиной и Бразилией считается раем для организованной преступности, наркоторговцев и ... 7 10 4
Торрент: Зарегистрирован [2019-03-15 11:14] · скачан: 282 раз
Статус: √ проверено
Размер: 19.81 GB
Как cкачать? Как скачать Тройная граница через торрент | UTorrent

% Раздел Тема Автор DL S | L
Фильмы (WEB-DL 720p, 1080p) [ 4.6 GB ] Тройная граница / Triple Frontier [2019 WEB-DL 1080p] killermax2013 Скачать
1 | 0
Фильмы (WEB-DL 720p, 1080p) [ 3.58 GB ] Тройная граница / Triple Frontier [2019 WEBRip 720p] DUB [Невафильм] bober100 Скачать
1 | 0
Ultra HD (UHD: 2K, 4K, 8K) — видео сверхвысокой чёткости [ 31.92 GB ] Тройная граница / Triple Frontier [2019 UHD WEB-DLRip 2160p] [SDR] [Невафильм] sheker187 Скачать
1 | 0
Фильмы 2019-2020 [DVDrip, WEB-DLRip, HDrip] (DUB, MVO) [ 2.45 GB ] Тройная граница / Triple Frontier [2019 WEB-DLRip-AVC] DUB [Невафильм] bober100 Скачать
2 | 0
Фильмы 2019-2020 [DVDrip, WEB-DLRip, HDrip] (DUB, MVO) [ 1.08 GB ] Тройная граница / Triple Frontier [2019 WEB-DLRip-AVC] DUB [Невафильм] bober100 Скачать
1 | 0
Фильмы 2019-2020 [DVDrip, WEB-DLRip, HDrip] (DUB, MVO) [ 1.46 GB ] Тройная граница / Triple Frontier [2019 WEB-DLRip] killermax2013 Скачать
1 | 0
T Фильмы без перевода [ 4.26 GB ] Тройная граница / Triple Frontier [2019 WEBRip 1080p] [Sub RUS] killermax2013 Скачать
1 | 0

28-11-2019 20:33  

Отключить вcю реклaмy на сайте

15-03-2019 11:25 Тройная граница Скачать торрент  

персонажи фильма настолько тупые насколько вообще могут быть американцы.pb.wtf



    Дорогой пользователь! Огромная просьба, поблагодарите релизера, оцените раздачу и оставьте свои комментарий, если Вы скачали Тройная граница через торрент бесплатно!
    Комментировать посты могут только пользователи прошедшие не сложную регистрацию
    Показать сообщения:    

    Тройная граница через торрент
    Скачать бесплатно Тройная граница
    Тройная граница скачать торрент
    Тройная граница смотреть онлайн
    Cкачать фильм Тройная граница бесплатно
    Тройная граница скачать торрент в хорошем качестве
    Тройная граница смотреть онлайн бесплатно в хорошем качестве


    Вы не можете начинать темы
    Вы не можете отвечать на сообщения
    Вы не можете редактировать свои сообщения
    Вы не можете удалять свои сообщения
    Вы не можете голосовать в опросах
    Вы не можете прикреплять файлы к сообщениям
    Вы можете скачивать файлы