новый адрес
Ссылка на приватное зеркало всего за 1$. Внимание количество ограничено!!!

iTunes

1+1

iTunes

мы

WEB-DL

1

iTunes

Чернобыль

iTunes

Ральф против интернета

Лицензия

ПШазам

Лицензия

Оно 2

Лицензия

30
pack

Вам бонус

ВАЖНО

!!Акция!!

Alien_RageХит недели

RePack

Resident Evil 21

ИГРА 18+

pack

RePack

jed

!!Акция!!

Alien_Rage

RePack

fifa19

RePack

Assassins Creed: Odyssey

RePack

NEED FOR SPEED™ PAYBACK

3 сезон

9 сезон

Бесстыжие 9 сезон

Все сериалы

все сериалы на PB.wtf

RePack

FAR CRY 5
Ребята, катастрофически не хватает 1900р. для оплаты серверов за Октябрь (всвязи с блокировками трафик упал в 3 раза), 1-2р., выручайте.
  

Крид 2 / Creed II (Стивен Кейпл мл.) [2018 г., Драма, спорт, BDRip] DUB [Лицензия] pb.wtf

Крид 2 через торрент pb.wtf

Раздают: 1 [ 0 KB/s ]
Размер: 1.46 GB | Добавлен: 8 мес. назад | Торрент скачан:1080 раз
Скачать  

16-03-2019 02:39 Крид 2 Скачать торрент  

Крид 2 / Creed IIГод выпуска: 2018
Страна: США
Жанр: Драма, спорт
Продолжительность: 02:10:01
Перевод: Дубляж BD CEE
Субтитры: Русские форсированные (отдельно)

Режиссер: Стивен Кейпл мл.

rating

В ролях: Майкл Б. Джордан, Сильвестр Сталлоне, Тесса Томпсон, Филисия Рашад, Дольф Лундгрен, Флориан Мунтяну, Расселл Хорнсби, Вуд Харрис, Майло Вентимилья

Описание: Возвращение на ринг потомственного боксера Адониса Крида, которого тренирует старый друг его отца и легендарный чемпион Рокки. Два поколения бойцов снова разбираются в своих жизненных драмах с помощью бокса.

Качество: BDRip
Формат: AVI
Видео кодек: XviD
Аудио кодек: AC3
Видео: 720x304 (2.35:1), 23.976 fps, XviD ~1 407 kbps avg, 0.268 bit/pixel
Аудио#1: 48 kHz, AC3 Dolby Digital, 2 (L,R) ch, ~192.00 kbps avg | RUS (BD EUR)

Релиз от:
Общее
Уникальный идентификатор : 202599126881420220861987324872918919120 (0x986B2C2A0F01C0F88341A6CB011167D0)
Полное имя : D:/Фильмы/Creed.2.2018.BDRip.1.46Gb.DUB.MegaPeerCreed.2.2018.BDRip.1.46Gb.DUB.MegaPeer.avi
Формат : AVI
Формат/Информация : Audio Video Interleave
Размер файла : 1,46 Гбайт
Продолжительность : 2 ч. 10 м.
Общий поток : 1608 Кбит/сек
Программа кодирования : VirtualDubMod 1.5.10.3 | www.virtualdub-fr.org || (build 2550/release)
Библиотека кодирования : VirtualDubMod build 2550/release

Видео
Идентификатор : 0
Формат : MPEG-4 Visual
Профиль формата : Advanced Simple@L5
Настройки формата : BVOP1 / Custom Matrix
Параметр BVOP формата : 1
Параметр QPel формата : Нет
Параметр GMC формата : Без точки перехода
Параметр матрицы формата : Выборочная
Идентификатор кодека : XVID
Идентификатор кодека/Подсказка : XviD
Продолжительность : 2 ч. 10 м.
Битрейт : 1407 Кбит/сек
Ширина : 720 пикселей
Высота : 304 пикселя
Соотношение сторон : 2,35:1
Частота кадров : 23,976 (24000/1001) кадра/сек
Цветовое пространство : YUV
Субдискретизация насыщенности : 4:2:0
Битовая глубина : 8 бит
Тип развёртки : Прогрессивная
Метод сжатия : С потерями
Бит/(Пиксели*Кадры) : 0.268
Размер потока : 1,28 Гбайт (87%)
Библиотека кодирования : XviD 73

Аудио
Идентификатор : 1
Формат : AC-3
Формат/Информация : Audio Coding 3
Коммерческое название : Dolby Digital
Идентификатор кодека : 2000
Продолжительность : 2 ч. 10 м.
Вид битрейта : Постоянный
Битрейт : 192 Кбит/сек
Каналы : 2 канала
Channel layout : L R
Частота : 48,0 КГц
Частота кадров : 31,250 кадров/сек (1536 SPF)
Битовая глубина : 16 бит
Метод сжатия : С потерями
Размер потока : 179 Мбайт (12%)
Выравнивание : Разделение по промежуткам
Продолжительность промежутка : 42 мс. (1,00 видеокадр)
Время предзагрузки промежутка : 500 мс.
ServiceKind/String : Complete Main

pb.wtf



Скачать Крид 2 через торрент https://i110.fastpic.ru/big/2019/0304/b6/dba1299019cd1015d2774d77a2efe7b6.jpg Скачать фильм Крид 2 через торрент бесплантно в хорошем качестве Описание: Возвращение на ринг потомственного боксера Адониса Крида, которого тренирует старый друг его отца и легендарный чемпион Рокки. ... 10 10 21
Info! Золотая раздача, скачанное не засчитывается.
Торрент: Зарегистрирован [2019-03-16 02:39] · скачан: 1 080 раз
Статус: √ проверено
Размер: 1.46 GB
Как cкачать? Как скачать Крид 2 через торрент | qTorrent

% Раздел Тема Автор DL S | L
Фильмы (HD 720p, 1080p) (48-60 fps) [ 17.46 GB ] Крид 2 / Creed II [2018 BDRip 1080p 60 fps] [] sheker187 Скачать
1 | 0
Фильмы 2018 [DVDrip, WEB-DLRip, HDrip] (DUB, MVO) [ 2.18 GB ] Крид 2 / Creed II [2018 BDRip] - [] Twi7ter Скачать
7 | 0
Ultra HD (UHD: 2K, 4K, 8K) — видео сверхвысокой чёткости [ 53.03 GB ] Крид 2 / Creed II [2018 UHD Blu-ray 2160p] DUB [] [Dolby Vision] sheker187 Скачать
1 | 0
Фильмы 2018 [DVDrip, WEB-DLRip, HDrip] (DUB, MVO) [ 1.46 GB ] Крид 2 / Creed II [2018 BDRip] - [] Twi7ter Скачать
3 | 0
# Фильмы (мультфильмы) cо спонсором показа (Новинки AVI/MKV) [ 11.82 GB ] Крид 2 / Creed II [2018 BDRip 1080p] DUB [Line] bober100 Скачать
1 | 0
Ultra HD (UHD: 2K, 4K, 8K) — видео сверхвысокой чёткости [ 42.57 GB ] Крид 2 / Creed II [2018 UHD BDRemux 2160p] DUB [] + MVO [HDRezka Studio] sheker187 Скачать
1 | 0
Фильмы [HD 720p, 1080p] (Хороший звук DUB, MVO) [ 7.51 GB ] Крид 2 / Creed II [2018 BDRip 1080p-HEVC] DUB [] + MVO [HDRezka Studio] sheker187 Скачать
2 | 0

28-11-2019 20:33  

Отключить всю рекламу на сайте

20-03-2019 19:07 Крид 2 Скачать торрент  

Классный фильм. Бокс на ринге вобще круто снят.pb.wtf



    Дорогой пользователь! Огромная просьба, поблагодарите релизера, оцените раздачу и оставьте свои комментарий, если Вы скачали Крид 2 через торрент бесплатно! Внесите свою лепту в развитие PiratBit!
    Комментировать посты могут только пользователи прошедшие не сложную регистрацию
    Показать сообщения:    

    Крид 2 через торрент
    Скачать бесплатно Крид 2
    Крид 2 скачать торрент
    Крид 2 смотреть онлайн
    Cкачать фильм Крид 2 бесплатно
    Крид 2 скачать торрент в хорошем качестве
    Крид 2 смотреть онлайн бесплатно в хорошем качестве


    Вы не можете начинать темы
    Вы не можете отвечать на сообщения
    Вы не можете редактировать свои сообщения
    Вы не можете удалять свои сообщения
    Вы не можете голосовать в опросах
    Вы не можете прикреплять файлы к сообщениям
    Вы можете скачивать файлы