Ссылка на приватное зеркало нашего сайта всего за 1$. Внимание количество ограничено!!!

2 сезон

iTunes

1 сезон

1

2 сезон

2 сезон

iTunes

1 сезон

RePack

30

Ultimate

ВАЖНО

ИГРА 18+

pack

RePack

MK11
pack

Забери бонус

RePack

jed

!!Акция!!

Alien_Rage

RePack

fifa19

RePack

Assassins Creed: Odyssey

RePack

NEED FOR SPEED™ PAYBACK

4 сезон

9 сезон

Бесстыжие 9 сезон

Все сериалы

все сериалы на PB.wtf

RePack

FAR CRY 5
  

Крид 2 / Creed II (Стивен Кейпл мл.) [2018, драма, спорт, Blu-ray EUR 1080p] DUB [Лицензия] pb.wtf

Крид 2 через торрент pb.wtf

Раздают: 1 [ 0 KB/s ]
Размер: 42.89 GB | Добавлен: 1 год 8 мес. назад | Торрент скачан:37 раз
Скачать  

16-03-2019 02:46 Крид 2 Скачать торрент  

Крид 2 / Creed II««The Legend Becomes Stronger»»

Год выпуска: 2018
Страна: США
Жанр: драма, спорт
Продолжительность: 02:10:00
Перевод: Дублированный | Лицензия
Субтитры: Русские, английские, китайские, корейские, арабские, болгарские, хорватские, чешские, эстонские, иврит, венгерские, исландские, латышские, польские, португальские, румынские, словенские, тайские, турецкие
Режиссер: Стивен Кейпл мл.
В ролях:

Майкл Б. Джордан (Adonis Johnson), Сильвестр Сталлоне (Rocky Balboa), Тесса Томпсон (Bianca), Филисия Рашад (Mary Anne Creed), Дольф Лундгрен (Ivan Drago), Флориан Мунтяну (Viktor Drago), Расселл Хорнсби (Buddy Marcelle), Вуд Харрис (Tony «Little Duke» Burton), Майло Вентимилья (Robert Balboa), Робби Джонс (Logan Balboa), Андре Уорд (Danny «Stuntman» Wheeler), Бриджит Нильсен (Ludmilla Drago)
Описание:
Жизнь Адониса Крида превратилась в череду компромиссов. Пока он разрывается между долгом и тренировками к следующему большому бою, судьба готовит ему новую невыполнимую миссию. Будущий противник тесно связан с историей его семьи, что лишь повышает ставки перед предстоящим выходом на ринг. Рокки Бальбоа всегда будет на стороне Крида, и вместе они выйдут на битву с призраками их общего прошлого, выяснят, за что действительно стоит сражаться, и поймут, что нет ничего дороже семьи. Нужно вернуться к истокам, чтобы вспомнить, что именно сделало тебя чемпионом, и что, куда бы ты не бежал, от себя все равно не скрыться.
Рейтинг:

MPAA: PG-13 - Детям до 13 лет просмотр не желателен
Качество: Blu-ray EUR 1080p
Формат: BDMV
Видео: MPEG-4 AVC, 25919 Кбит/с, 1920x1080, 23.976 кадр/с
Аудио:
Dolby TrueHD Audio English 3613 kbps 7.1 / 48 kHz / 3613 kbps / 24-bit (AC3 Embedded: 5.1-EX / 48 kHz / 448 kbps / DN -4dB)
DTS-HD Master Audio English 3602 kbps 5.1 / 48 kHz / 3602 kbps / 24-bit (DTS Core: 5.1 / 48 kHz / 1509 kbps / 24-bit)
Dolby Digital Audio Czech 640 kbps 5.1 / 48 kHz / 640 kbps / DN -4dB
Dolby Digital Audio Hungarian 640 kbps 5.1 / 48 kHz / 640 kbps / DN -4dB
Dolby Digital Audio Polish 640 kbps 5.1 / 48 kHz / 640 kbps / DN -4dB
Dolby Digital Audio Russian 640 kbps 5.1 / 48 kHz / 640 kbps / DN -4dB

Disc Title: CREED_II_2018_EUR_BLUEBIRD
Disc Size: 46 055 938 576 bytes
Protection: AACS
BD-Java: Yes
BDInfo: 0.5.8

Notes:

BDINFO HOME:
Cinema Squid
http://www.cinemasquid.com/blu-ray/tools/bdinfo

INCLUDES FORUMS REPORT FOR:
AVS Forum Blu-ray Audio and Video Specifications Thread
http://www.avsforum.com/avs-vb/showthread.php?t=1155731

********************
PLAYLIST: 00801.MPLS
********************

<--- BEGIN FORUMS PASTE --->

Total Video
Title Codec Length Movie Size Disc Size Bitrate Bitrate Main Audio Track Secondary Audio Track
----- ------ ------- -------------- -------------- ------- ------- ------------------ ---------------------
00801.MPLS AVC 2:10:00 39 040 806 912 46 055 938 576 40,04 25,92 Dolby TrueHD 7.1 3613Kbps (48kHz/24-bit) DTS-HD Master 5.1 3602Kbps (48kHz/24-bit)

DISC INFO:

Disc Title: CREED_II_2018_EUR_BLUEBIRD
Disc Size: 46 055 938 576 bytes
Protection: AACS
BD-Java: Yes
BDInfo: 0.5.8

PLAYLIST REPORT:

Name: 00801.MPLS
Length: 2:10:00.459 (h:m:s.ms)
Size: 39 040 806 912 bytes
Total Bitrate: 40,04 Mbps

VIDEO:

Codec Bitrate Description
----- ------- -----------
MPEG-4 AVC Video 25919 kbps 1080p / 23,976 fps / 16:9 / High Profile 4.1

AUDIO:

Codec Language Bitrate Description
----- -------- ------- -----------
Dolby TrueHD Audio English 3613 kbps 7.1 / 48 kHz / 3613 kbps / 24-bit (AC3 Embedded: 5.1-EX / 48 kHz / 448 kbps / DN -4dB)
DTS-HD Master Audio English 3602 kbps 5.1 / 48 kHz / 3602 kbps / 24-bit (DTS Core: 5.1 / 48 kHz / 1509 kbps / 24-bit)
Dolby Digital Audio Czech 640 kbps 5.1 / 48 kHz / 640 kbps / DN -4dB
Dolby Digital Audio Hungarian 640 kbps 5.1 / 48 kHz / 640 kbps / DN -4dB
Dolby Digital Audio Polish 640 kbps 5.1 / 48 kHz / 640 kbps / DN -4dB
Dolby Digital Audio Russian 640 kbps 5.1 / 48 kHz / 640 kbps / DN -4dB

SUBTITLES:

Codec Language Bitrate Description
----- -------- ------- -----------
Presentation Graphics English 34,283 kbps
Presentation Graphics Chinese 27,183 kbps
Presentation Graphics Chinese 28,638 kbps
Presentation Graphics Korean 19,042 kbps
Presentation Graphics Arabic 15,699 kbps
Presentation Graphics Bulgarian 25,560 kbps
Presentation Graphics Croatian 25,782 kbps
Presentation Graphics Czech 28,239 kbps
Presentation Graphics Estonian 29,372 kbps
Presentation Graphics Hebrew 22,758 kbps
Presentation Graphics Hungarian 28,557 kbps
Presentation Graphics Icelandic 29,624 kbps
Presentation Graphics Latvian 26,944 kbps
Presentation Graphics Lithuanian 26,203 kbps
Presentation Graphics Polish 24,157 kbps
Presentation Graphics Portuguese 28,727 kbps
Presentation Graphics Romanian 26,501 kbps
Presentation Graphics Russian 27,597 kbps
Presentation Graphics Slovenian 27,275 kbps
Presentation Graphics Thai 28,518 kbps
Presentation Graphics Turkish 27,911 kbps
Presentation Graphics Czech 0,881 kbps
Presentation Graphics Hungarian 0,957 kbps
Presentation Graphics Russian 0,307 kbps

FILES:

Name Time In Length Size Total Bitrate
---- ------- ------ ---- -------------
01209.M2TS 0:00:00.000 2:10:00.459 39 040 806 912 40 039

CHAPTERS:

Number Time In Length Avg Video Rate Max 1-Sec Rate Max 1-Sec Time Max 5-Sec Rate Max 5-Sec Time Max 10Sec Rate Max 10Sec Time Avg Frame Size Max Frame Size Max Frame Time
------ ------- ------ -------------- -------------- -------------- -------------- -------------- -------------- -------------- -------------- -------------- --------------
1 0:00:00.000 0:11:33.150 26 034 kbps 33 029 kbps 00:00:20.687 28 217 kbps 00:00:19.436 28 008 kbps 00:09:36.450 135 721 bytes 411 636 bytes 00:09:46.460
2 0:11:33.150 0:08:33.012 25 851 kbps 31 154 kbps 00:14:58.480 28 410 kbps 00:14:54.476 27 918 kbps 00:15:18.584 134 776 bytes 509 520 bytes 00:17:35.095
3 0:20:06.163 0:13:21.842 25 245 kbps 30 004 kbps 00:20:58.715 28 107 kbps 00:21:03.553 27 899 kbps 00:26:07.274 131 616 bytes 414 197 bytes 00:20:10.083
4 0:33:28.006 0:10:21.120 27 044 kbps 30 854 kbps 00:34:38.367 28 273 kbps 00:34:35.323 28 089 kbps 00:34:29.358 140 994 bytes 521 006 bytes 00:34:39.327
5 0:43:49.126 0:14:02.758 26 253 kbps 32 254 kbps 00:48:24.276 28 334 kbps 00:43:59.887 28 009 kbps 00:43:55.007 136 869 bytes 543 525 bytes 00:48:59.811
6 0:57:51.885 0:08:46.984 25 132 kbps 30 696 kbps 01:03:16.709 28 132 kbps 01:03:13.039 27 937 kbps 01:02:42.967 131 025 bytes 339 188 bytes 01:02:49.223
7 1:06:38.869 0:13:33.646 26 157 kbps 30 063 kbps 01:12:28.594 28 263 kbps 01:12:28.594 28 057 kbps 01:12:28.594 136 372 bytes 496 187 bytes 01:12:37.603
8 1:20:12.516 0:10:49.440 25 925 kbps 32 545 kbps 01:21:01.731 28 772 kbps 01:20:57.727 28 142 kbps 01:22:49.255 135 162 bytes 399 024 bytes 01:31:01.956
9 1:31:01.956 0:09:12.260 26 045 kbps 30 663 kbps 01:36:25.738 28 360 kbps 01:39:16.492 28 009 kbps 01:33:54.503 135 786 bytes 501 284 bytes 01:36:26.697
10 1:40:14.216 0:10:17.241 25 993 kbps 30 574 kbps 01:44:33.058 28 348 kbps 01:44:29.054 28 077 kbps 01:44:55.330 135 515 bytes 490 437 bytes 01:44:34.059
11 1:50:31.458 0:12:24.452 26 293 kbps 31 132 kbps 02:01:48.759 28 490 kbps 02:01:48.592 28 126 kbps 02:01:42.753 137 081 bytes 633 434 bytes 01:58:57.672
12 2:02:55.910 0:07:04.549 24 354 kbps 32 679 kbps 02:04:37.136 28 346 kbps 02:03:51.132 28 014 kbps 02:03:18.224 126 981 bytes 634 297 bytes 02:09:49.907

STREAM DIAGNOSTICS:

File PID Type Codec Language Seconds Bitrate Bytes Packets
---- --- ---- ----- -------- -------------- -------------- ------------- -----
01209.M2TS 4113 (0x1011) 0x1B AVC 7800,293 25 919 25 272 076 039 137 457 429
01209.M2TS 4352 (0x1100) 0x83 TrueHD eng (English) 7800,293 4 061 3 959 915 916 27 403 373
01209.M2TS 4353 (0x1101) 0x86 DTS-HD MA eng (English) 7800,293 3 602 3 512 083 076 20 306 481
01209.M2TS 4354 (0x1102) 0x81 AC3 ces (Czech) 7800,293 640 624 038 400 3 656 475
01209.M2TS 4355 (0x1103) 0x81 AC3 hun (Hungarian) 7800,293 640 624 038 400 3 656 475
01209.M2TS 4356 (0x1104) 0x81 AC3 pol (Polish) 7800,293 640 624 038 400 3 656 475
01209.M2TS 4357 (0x1105) 0x81 AC3 rus (Russian) 7800,293 640 624 038 400 3 656 475
01209.M2TS 4608 (0x1200) 0x90 PGS eng (English) 7800,293 34 33 427 846 194 158
01209.M2TS 4609 (0x1201) 0x90 PGS zho (Chinese) 7800,293 27 26 504 615 153 680
01209.M2TS 4610 (0x1202) 0x90 PGS zho (Chinese) 7800,293 29 27 923 615 162 434
01209.M2TS 4611 (0x1203) 0x90 PGS kor (Korean) 7800,293 19 18 567 232 111 486
01209.M2TS 4612 (0x1204) 0x90 PGS ara (Arabic) 7800,293 16 15 307 756 94 105
01209.M2TS 4613 (0x1205) 0x90 PGS bul (Bulgarian) 7800,293 26 24 922 549 146 354
01209.M2TS 4614 (0x1206) 0x90 PGS hrv (Croatian) 7800,293 26 25 139 187 147 629
01209.M2TS 4615 (0x1207) 0x90 PGS ces (Czech) 7800,293 28 27 534 789 160 546
01209.M2TS 4616 (0x1208) 0x90 PGS est (Estonian) 7800,293 29 28 639 862 166 607
01209.M2TS 4617 (0x1209) 0x90 PGS heb (Hebrew) 7800,293 23 22 190 662 131 511
01209.M2TS 4618 (0x120A) 0x90 PGS hun (Hungarian) 7800,293 29 27 845 115 162 271
01209.M2TS 4619 (0x120B) 0x90 PGS isl (Icelandic) 7800,293 30 28 884 918 167 932
01209.M2TS 4620 (0x120C) 0x90 PGS lav (Latvian) 7800,293 27 26 272 206 153 799
01209.M2TS 4621 (0x120D) 0x90 PGS lit (Lithuanian) 7800,293 26 25 549 032 149 851
01209.M2TS 4622 (0x120E) 0x90 PGS pol (Polish) 7800,293 24 23 554 840 138 384
01209.M2TS 4623 (0x120F) 0x90 PGS por (Portuguese) 7800,293 29 28 010 558 163 002
01209.M2TS 4624 (0x1210) 0x90 PGS ron (Romanian) 7800,293 27 25 840 064 150 757
01209.M2TS 4625 (0x1211) 0x90 PGS rus (Russian) 7800,293 28 26 908 260 156 906
01209.M2TS 4626 (0x1212) 0x90 PGS slv (Slovenian) 7800,293 27 26 594 543 155 529
01209.M2TS 4627 (0x1213) 0x90 PGS tha (Thai) 7800,293 29 27 806 540 162 095
01209.M2TS 4628 (0x1214) 0x90 PGS tur (Turkish) 7800,293 28 27 214 547 158 610
01209.M2TS 4629 (0x1215) 0x90 PGS ces (Czech) 7800,293 1 858 634 5 119
01209.M2TS 4630 (0x1216) 0x90 PGS hun (Hungarian) 7800,293 1 933 556 5 511
01209.M2TS 4631 (0x1217) 0x90 PGS rus (Russian) 7800,293 0 298 964 1 744

<---- END FORUMS PASTE ---->

QUICK SUMMARY:

Disc Title: CREED_II_2018_EUR_BLUEBIRD
Disc Size: 46 055 938 576 bytes
Protection: AACS
BD-Java: Yes
Playlist: 00801.MPLS
Size: 39 040 806 912 bytes
Length: 2:10:00.459
Total Bitrate: 40,04 Mbps
Video: MPEG-4 AVC Video / 25919 kbps / 1080p / 23,976 fps / 16:9 / High Profile 4.1
Audio: English / Dolby TrueHD Audio / 7.1 / 48 kHz / 3613 kbps / 24-bit (AC3 Embedded: 5.1-EX / 48 kHz / 448 kbps / DN -4dB)
Audio: English / DTS-HD Master Audio / 5.1 / 48 kHz / 3602 kbps / 24-bit (DTS Core: 5.1 / 48 kHz / 1509 kbps / 24-bit)
Audio: Czech / Dolby Digital Audio / 5.1 / 48 kHz / 640 kbps / DN -4dB
Audio: Hungarian / Dolby Digital Audio / 5.1 / 48 kHz / 640 kbps / DN -4dB
Audio: Polish / Dolby Digital Audio / 5.1 / 48 kHz / 640 kbps / DN -4dB
Audio: Russian / Dolby Digital Audio / 5.1 / 48 kHz / 640 kbps / DN -4dB
Subtitle: English / 34,283 kbps
Subtitle: Chinese / 27,183 kbps
Subtitle: Chinese / 28,638 kbps
Subtitle: Korean / 19,042 kbps
Subtitle: Arabic / 15,699 kbps
Subtitle: Bulgarian / 25,560 kbps
Subtitle: Croatian / 25,782 kbps
Subtitle: Czech / 28,239 kbps
Subtitle: Estonian / 29,372 kbps
Subtitle: Hebrew / 22,758 kbps
Subtitle: Hungarian / 28,557 kbps
Subtitle: Icelandic / 29,624 kbps
Subtitle: Latvian / 26,944 kbps
Subtitle: Lithuanian / 26,203 kbps
Subtitle: Polish / 24,157 kbps
Subtitle: Portuguese / 28,727 kbps
Subtitle: Romanian / 26,501 kbps
Subtitle: Russian / 27,597 kbps
Subtitle: Slovenian / 27,275 kbps
Subtitle: Thai / 28,518 kbps
Subtitle: Turkish / 27,911 kbps
Subtitle: Czech / 0,881 kbps
Subtitle: Hungarian / 0,957 kbps
Subtitle: Russian / 0,307 kbps

********************
PLAYLIST: 01306.MPLS
********************

<--- BEGIN FORUMS PASTE --->

Total Video
Title Codec Length Movie Size Disc Size Bitrate Bitrate Main Audio Track Secondary Audio Track
----- ------ ------- -------------- -------------- ------- ------- ------------------ ---------------------
01306.MPLS AVC 2:10:00 39 040 806 912 46 055 938 576 40,04 25,92 Dolby TrueHD 7.1 3613Kbps (48kHz/24-bit) DTS-HD Master 5.1 3602Kbps (48kHz/24-bit)

DISC INFO:

Disc Title: CREED_II_2018_EUR_BLUEBIRD
Disc Size: 46 055 938 576 bytes
Protection: AACS
BD-Java: Yes
BDInfo: 0.5.8

PLAYLIST REPORT:

Name: 01306.MPLS
Length: 2:10:00.459 (h:m:s.ms)
Size: 39 040 806 912 bytes
Total Bitrate: 40,04 Mbps

VIDEO:

Codec Bitrate Description
----- ------- -----------
MPEG-4 AVC Video 25919 kbps 1080p / 23,976 fps / 16:9 / High Profile 4.1

AUDIO:

Codec Language Bitrate Description
----- -------- ------- -----------
Dolby TrueHD Audio English 3613 kbps 7.1 / 48 kHz / 3613 kbps / 24-bit (AC3 Embedded: 5.1-EX / 48 kHz / 448 kbps / DN -4dB)
DTS-HD Master Audio English 3602 kbps 5.1 / 48 kHz / 3602 kbps / 24-bit (DTS Core: 5.1 / 48 kHz / 1509 kbps / 24-bit)
Dolby Digital Audio Czech 640 kbps 5.1 / 48 kHz / 640 kbps / DN -4dB
Dolby Digital Audio Hungarian 640 kbps 5.1 / 48 kHz / 640 kbps / DN -4dB
Dolby Digital Audio Polish 640 kbps 5.1 / 48 kHz / 640 kbps / DN -4dB
Dolby Digital Audio Russian 640 kbps 5.1 / 48 kHz / 640 kbps / DN -4dB

SUBTITLES:

Codec Language Bitrate Description
----- -------- ------- -----------
Presentation Graphics English 34,283 kbps
Presentation Graphics Chinese 27,183 kbps
Presentation Graphics Chinese 28,638 kbps
Presentation Graphics Korean 19,042 kbps
Presentation Graphics Arabic 15,699 kbps
Presentation Graphics Bulgarian 25,560 kbps
Presentation Graphics Croatian 25,782 kbps
Presentation Graphics Czech 28,239 kbps
Presentation Graphics Estonian 29,372 kbps
Presentation Graphics Hebrew 22,758 kbps
Presentation Graphics Hungarian 28,557 kbps
Presentation Graphics Icelandic 29,624 kbps
Presentation Graphics Latvian 26,944 kbps
Presentation Graphics Lithuanian 26,203 kbps
Presentation Graphics Polish 24,157 kbps
Presentation Graphics Portuguese 28,727 kbps
Presentation Graphics Romanian 26,501 kbps
Presentation Graphics Russian 27,597 kbps
Presentation Graphics Slovenian 27,275 kbps
Presentation Graphics Thai 28,518 kbps
Presentation Graphics Turkish 27,911 kbps
Presentation Graphics Czech 0,881 kbps
Presentation Graphics Hungarian 0,957 kbps
Presentation Graphics Russian 0,307 kbps

FILES:

Name Time In Length Size Total Bitrate
---- ------- ------ ---- -------------
01209.M2TS 0:00:00.000 2:10:00.459 39 040 806 912 40 039

CHAPTERS:

Number Time In Length Avg Video Rate Max 1-Sec Rate Max 1-Sec Time Max 5-Sec Rate Max 5-Sec Time Max 10Sec Rate Max 10Sec Time Avg Frame Size Max Frame Size Max Frame Time
------ ------- ------ -------------- -------------- -------------- -------------- -------------- -------------- -------------- -------------- -------------- --------------
1 0:00:00.000 0:11:33.150 26 034 kbps 33 029 kbps 00:00:20.687 28 217 kbps 00:00:19.436 28 008 kbps 00:09:36.450 135 721 bytes 411 636 bytes 00:09:46.460
2 0:11:33.150 0:08:33.012 25 851 kbps 31 154 kbps 00:14:58.480 28 410 kbps 00:14:54.476 27 918 kbps 00:15:18.584 134 776 bytes 509 520 bytes 00:17:35.095
3 0:20:06.163 0:13:21.842 25 245 kbps 30 004 kbps 00:20:58.715 28 107 kbps 00:21:03.553 27 899 kbps 00:26:07.274 131 616 bytes 414 197 bytes 00:20:10.083
4 0:33:28.006 0:10:21.120 27 044 kbps 30 854 kbps 00:34:38.367 28 273 kbps 00:34:35.323 28 089 kbps 00:34:29.358 140 994 bytes 521 006 bytes 00:34:39.327
5 0:43:49.126 0:14:02.758 26 253 kbps 32 254 kbps 00:48:24.276 28 334 kbps 00:43:59.887 28 009 kbps 00:43:55.007 136 869 bytes 543 525 bytes 00:48:59.811
6 0:57:51.885 0:08:46.984 25 132 kbps 30 696 kbps 01:03:16.709 28 132 kbps 01:03:13.039 27 937 kbps 01:02:42.967 131 025 bytes 339 188 bytes 01:02:49.223
7 1:06:38.869 0:13:33.646 26 157 kbps 30 063 kbps 01:12:28.594 28 263 kbps 01:12:28.594 28 057 kbps 01:12:28.594 136 372 bytes 496 187 bytes 01:12:37.603
8 1:20:12.516 0:10:49.440 25 925 kbps 32 545 kbps 01:21:01.731 28 772 kbps 01:20:57.727 28 142 kbps 01:22:49.255 135 162 bytes 399 024 bytes 01:31:01.956
9 1:31:01.956 0:09:12.260 26 045 kbps 30 663 kbps 01:36:25.738 28 360 kbps 01:39:16.492 28 009 kbps 01:33:54.503 135 786 bytes 501 284 bytes 01:36:26.697
10 1:40:14.216 0:10:17.241 25 993 kbps 30 574 kbps 01:44:33.058 28 348 kbps 01:44:29.054 28 077 kbps 01:44:55.330 135 515 bytes 490 437 bytes 01:44:34.059
11 1:50:31.458 0:12:24.452 26 293 kbps 31 132 kbps 02:01:48.759 28 490 kbps 02:01:48.592 28 126 kbps 02:01:42.753 137 081 bytes 633 434 bytes 01:58:57.672
12 2:02:55.910 0:07:04.549 24 354 kbps 32 679 kbps 02:04:37.136 28 346 kbps 02:03:51.132 28 014 kbps 02:03:18.224 126 981 bytes 634 297 bytes 02:09:49.907

STREAM DIAGNOSTICS:

File PID Type Codec Language Seconds Bitrate Bytes Packets
---- --- ---- ----- -------- -------------- -------------- ------------- -----
01209.M2TS 4113 (0x1011) 0x1B AVC 7800,293 25 919 25 272 076 039 137 457 429
01209.M2TS 4352 (0x1100) 0x83 TrueHD eng (English) 7800,293 4 061 3 959 915 916 27 403 373
01209.M2TS 4353 (0x1101) 0x86 DTS-HD MA eng (English) 7800,293 3 602 3 512 083 076 20 306 481
01209.M2TS 4354 (0x1102) 0x81 AC3 ces (Czech) 7800,293 640 624 038 400 3 656 475
01209.M2TS 4355 (0x1103) 0x81 AC3 hun (Hungarian) 7800,293 640 624 038 400 3 656 475
01209.M2TS 4356 (0x1104) 0x81 AC3 pol (Polish) 7800,293 640 624 038 400 3 656 475
01209.M2TS 4357 (0x1105) 0x81 AC3 rus (Russian) 7800,293 640 624 038 400 3 656 475
01209.M2TS 4608 (0x1200) 0x90 PGS eng (English) 7800,293 34 33 427 846 194 158
01209.M2TS 4609 (0x1201) 0x90 PGS zho (Chinese) 7800,293 27 26 504 615 153 680
01209.M2TS 4610 (0x1202) 0x90 PGS zho (Chinese) 7800,293 29 27 923 615 162 434
01209.M2TS 4611 (0x1203) 0x90 PGS kor (Korean) 7800,293 19 18 567 232 111 486
01209.M2TS 4612 (0x1204) 0x90 PGS ara (Arabic) 7800,293 16 15 307 756 94 105
01209.M2TS 4613 (0x1205) 0x90 PGS bul (Bulgarian) 7800,293 26 24 922 549 146 354
01209.M2TS 4614 (0x1206) 0x90 PGS hrv (Croatian) 7800,293 26 25 139 187 147 629
01209.M2TS 4615 (0x1207) 0x90 PGS ces (Czech) 7800,293 28 27 534 789 160 546
01209.M2TS 4616 (0x1208) 0x90 PGS est (Estonian) 7800,293 29 28 639 862 166 607
01209.M2TS 4617 (0x1209) 0x90 PGS heb (Hebrew) 7800,293 23 22 190 662 131 511
01209.M2TS 4618 (0x120A) 0x90 PGS hun (Hungarian) 7800,293 29 27 845 115 162 271
01209.M2TS 4619 (0x120B) 0x90 PGS isl (Icelandic) 7800,293 30 28 884 918 167 932
01209.M2TS 4620 (0x120C) 0x90 PGS lav (Latvian) 7800,293 27 26 272 206 153 799
01209.M2TS 4621 (0x120D) 0x90 PGS lit (Lithuanian) 7800,293 26 25 549 032 149 851
01209.M2TS 4622 (0x120E) 0x90 PGS pol (Polish) 7800,293 24 23 554 840 138 384
01209.M2TS 4623 (0x120F) 0x90 PGS por (Portuguese) 7800,293 29 28 010 558 163 002
01209.M2TS 4624 (0x1210) 0x90 PGS ron (Romanian) 7800,293 27 25 840 064 150 757
01209.M2TS 4625 (0x1211) 0x90 PGS rus (Russian) 7800,293 28 26 908 260 156 906
01209.M2TS 4626 (0x1212) 0x90 PGS slv (Slovenian) 7800,293 27 26 594 543 155 529
01209.M2TS 4627 (0x1213) 0x90 PGS tha (Thai) 7800,293 29 27 806 540 162 095
01209.M2TS 4628 (0x1214) 0x90 PGS tur (Turkish) 7800,293 28 27 214 547 158 610
01209.M2TS 4629 (0x1215) 0x90 PGS ces (Czech) 7800,293 1 858 634 5 119
01209.M2TS 4630 (0x1216) 0x90 PGS hun (Hungarian) 7800,293 1 933 556 5 511
01209.M2TS 4631 (0x1217) 0x90 PGS rus (Russian) 7800,293 0 298 964 1 744

<---- END FORUMS PASTE ---->

QUICK SUMMARY:

Disc Title: CREED_II_2018_EUR_BLUEBIRD
Disc Size: 46 055 938 576 bytes
Protection: AACS
BD-Java: Yes
Playlist: 01306.MPLS
Size: 39 040 806 912 bytes
Length: 2:10:00.459
Total Bitrate: 40,04 Mbps
Video: MPEG-4 AVC Video / 25919 kbps / 1080p / 23,976 fps / 16:9 / High Profile 4.1
Audio: English / Dolby TrueHD Audio / 7.1 / 48 kHz / 3613 kbps / 24-bit (AC3 Embedded: 5.1-EX / 48 kHz / 448 kbps / DN -4dB)
Audio: English / DTS-HD Master Audio / 5.1 / 48 kHz / 3602 kbps / 24-bit (DTS Core: 5.1 / 48 kHz / 1509 kbps / 24-bit)
Audio: Czech / Dolby Digital Audio / 5.1 / 48 kHz / 640 kbps / DN -4dB
Audio: Hungarian / Dolby Digital Audio / 5.1 / 48 kHz / 640 kbps / DN -4dB
Audio: Polish / Dolby Digital Audio / 5.1 / 48 kHz / 640 kbps / DN -4dB
Audio: Russian / Dolby Digital Audio / 5.1 / 48 kHz / 640 kbps / DN -4dB
Subtitle: English / 34,283 kbps
Subtitle: Chinese / 27,183 kbps
Subtitle: Chinese / 28,638 kbps
Subtitle: Korean / 19,042 kbps
Subtitle: Arabic / 15,699 kbps
Subtitle: Bulgarian / 25,560 kbps
Subtitle: Croatian / 25,782 kbps
Subtitle: Czech / 28,239 kbps
Subtitle: Estonian / 29,372 kbps
Subtitle: Hebrew / 22,758 kbps
Subtitle: Hungarian / 28,557 kbps
Subtitle: Icelandic / 29,624 kbps
Subtitle: Latvian / 26,944 kbps
Subtitle: Lithuanian / 26,203 kbps
Subtitle: Polish / 24,157 kbps
Subtitle: Portuguese / 28,727 kbps
Subtitle: Romanian / 26,501 kbps
Subtitle: Russian / 27,597 kbps
Subtitle: Slovenian / 27,275 kbps
Subtitle: Thai / 28,518 kbps
Subtitle: Turkish / 27,911 kbps
Subtitle: Czech / 0,881 kbps
Subtitle: Hungarian / 0,957 kbps
Subtitle: Russian / 0,307 kbps

********************
PLAYLIST: 01310.MPLS
********************

<--- BEGIN FORUMS PASTE --->

Total Video
Title Codec Length Movie Size Disc Size Bitrate Bitrate Main Audio Track Secondary Audio Track
----- ------ ------- -------------- -------------- ------- ------- ------------------ ---------------------
01310.MPLS AVC 0:15:00 2 211 170 304 46 055 938 576 19,65 17,96 DD AC3 2.0 192Kbps

DISC INFO:

Disc Title: CREED_II_2018_EUR_BLUEBIRD
Disc Size: 46 055 938 576 bytes
Protection: AACS
BD-Java: Yes
BDInfo: 0.5.8

PLAYLIST REPORT:

Name: 01310.MPLS
Length: 0:15:00.149 (h:m:s.ms)
Size: 2 211 170 304 bytes
Total Bitrate: 19,65 Mbps

VIDEO:

Codec Bitrate Description
----- ------- -----------
MPEG-4 AVC Video 17962 kbps 1080p / 23,976 fps / 16:9 / High Profile 4.1

AUDIO:

Codec Language Bitrate Description
----- -------- ------- -----------
Dolby Digital Audio English 192 kbps 2.0 / 48 kHz / 192 kbps / Dolby Surround

SUBTITLES:

Codec Language Bitrate Description
----- -------- ------- -----------
Presentation Graphics English 76,149 kbps
Presentation Graphics Chinese 67,047 kbps
Presentation Graphics Korean 54,858 kbps
Presentation Graphics Czech 62,632 kbps
Presentation Graphics Hungarian 67,088 kbps
Presentation Graphics Polish 62,111 kbps
Presentation Graphics Russian 77,860 kbps
Presentation Graphics Thai 76,497 kbps

FILES:

Name Time In Length Size Total Bitrate
---- ------- ------ ---- -------------
01213.M2TS 0:00:00.000 0:15:00.149 2 211 170 304 19 652

CHAPTERS:

Number Time In Length Avg Video Rate Max 1-Sec Rate Max 1-Sec Time Max 5-Sec Rate Max 5-Sec Time Max 10Sec Rate Max 10Sec Time Avg Frame Size Max Frame Size Max Frame Time
------ ------- ------ -------------- -------------- -------------- -------------- -------------- -------------- -------------- -------------- -------------- --------------
1 0:00:00.000 0:15:00.149 17 962 kbps 33 247 kbps 00:08:25.338 28 955 kbps 00:05:23.531 27 236 kbps 00:05:17.650 93 645 bytes 631 293 bytes 00:03:43.890

STREAM DIAGNOSTICS:

File PID Type Codec Language Seconds Bitrate Bytes Packets
---- --- ---- ----- -------- -------------- -------------- ------------- -----
01213.M2TS 4113 (0x1011) 0x1B AVC 899,982 17 965 2 021 040 434 10 996 500
01213.M2TS 4352 (0x1100) 0x81 AC3 eng (English) 899,982 192 21 603 840 140 650
01213.M2TS 4608 (0x1200) 0x90 PGS eng (English) 899,982 76 8 568 223 48 655
01213.M2TS 4609 (0x1201) 0x90 PGS zho (Chinese) 899,982 67 7 544 067 43 006
01213.M2TS 4610 (0x1202) 0x90 PGS kor (Korean) 899,982 55 6 172 495 35 611
01213.M2TS 4611 (0x1203) 0x90 PGS ces (Czech) 899,982 63 7 047 277 40 326
01213.M2TS 4612 (0x1204) 0x90 PGS hun (Hungarian) 899,982 67 7 548 655 43 026
01213.M2TS 4613 (0x1205) 0x90 PGS pol (Polish) 899,982 62 6 988 635 39 998
01213.M2TS 4614 (0x1206) 0x90 PGS rus (Russian) 899,982 78 8 760 647 49 702
01213.M2TS 4615 (0x1207) 0x90 PGS tha (Thai) 899,982 77 8 607 366 48 845

<---- END FORUMS PASTE ---->

QUICK SUMMARY:

Disc Title: CREED_II_2018_EUR_BLUEBIRD
Disc Size: 46 055 938 576 bytes
Protection: AACS
BD-Java: Yes
Playlist: 01310.MPLS
Size: 2 211 170 304 bytes
Length: 0:15:00.149
Total Bitrate: 19,65 Mbps
Video: MPEG-4 AVC Video / 17962 kbps / 1080p / 23,976 fps / 16:9 / High Profile 4.1
Audio: English / Dolby Digital Audio / 2.0 / 48 kHz / 192 kbps / Dolby Surround
Subtitle: English / 76,149 kbps
Subtitle: Chinese / 67,047 kbps
Subtitle: Korean / 54,858 kbps
Subtitle: Czech / 62,632 kbps
Subtitle: Hungarian / 67,088 kbps
Subtitle: Polish / 62,111 kbps
Subtitle: Russian / 77,860 kbps
Subtitle: Thai / 76,497 kbps

********************
PLAYLIST: 00205.MPLS
********************

<--- BEGIN FORUMS PASTE --->

Total Video
Title Codec Length Movie Size Disc Size Bitrate Bitrate Main Audio Track Secondary Audio Track
----- ------ ------- -------------- -------------- ------- ------- ------------------ ---------------------
00205.MPLS AVC 0:09:46 1 416 732 672 46 055 938 576 19,34 17,99 DD AC3 2.0 192Kbps

DISC INFO:

Disc Title: CREED_II_2018_EUR_BLUEBIRD
Disc Size: 46 055 938 576 bytes
Protection: AACS
BD-Java: Yes
BDInfo: 0.5.8

PLAYLIST REPORT:

Name: 00205.MPLS
Length: 0:09:46.043 (h:m:s.ms)
Size: 1 416 732 672 bytes
Total Bitrate: 19,34 Mbps

VIDEO:

Codec Bitrate Description
----- ------- -----------
MPEG-4 AVC Video 17992 kbps 1080p / 23,976 fps / 16:9 / High Profile 4.1

AUDIO:

Codec Language Bitrate Description
----- -------- ------- -----------
Dolby Digital Audio English 192 kbps 2.0 / 48 kHz / 192 kbps / Dolby Surround

SUBTITLES:

Codec Language Bitrate Description
----- -------- ------- -----------
Presentation Graphics English 33,990 kbps
Presentation Graphics Chinese 29,433 kbps
Presentation Graphics Korean 21,927 kbps
Presentation Graphics Czech 24,998 kbps
Presentation Graphics Hungarian 28,745 kbps
Presentation Graphics Polish 26,649 kbps
Presentation Graphics Russian 29,084 kbps
Presentation Graphics Thai 30,664 kbps

FILES:

Name Time In Length Size Total Bitrate
---- ------- ------ ---- -------------
01214.M2TS 0:00:00.000 0:09:46.043 1 416 732 672 19 340

CHAPTERS:

Number Time In Length Avg Video Rate Max 1-Sec Rate Max 1-Sec Time Max 5-Sec Rate Max 5-Sec Time Max 10Sec Rate Max 10Sec Time Avg Frame Size Max Frame Size Max Frame Time
------ ------- ------ -------------- -------------- -------------- -------------- -------------- -------------- -------------- -------------- -------------- --------------
1 0:00:00.000 0:02:49.002 17 990 kbps 25 245 kbps 00:00:03.420 21 189 kbps 00:00:03.420 20 857 kbps 00:00:34.826 93 770 bytes 267 936 bytes 00:00:43.418
2 0:02:49.002 0:03:06.686 17 991 kbps 30 354 kbps 00:03:10.982 27 654 kbps 00:02:52.380 27 247 kbps 00:02:52.380 93 795 bytes 404 879 bytes 00:02:51.671
3 0:05:55.688 0:01:02.687 17 998 kbps 23 884 kbps 00:05:58.107 19 516 kbps 00:06:36.229 18 929 kbps 00:06:28.346 93 832 bytes 249 890 bytes 00:06:09.035
4 0:06:58.376 0:02:47.667 17 994 kbps 24 582 kbps 00:08:23.127 22 203 kbps 00:08:23.085 21 505 kbps 00:09:33.531 93 837 bytes 212 334 bytes 00:09:21.644

STREAM DIAGNOSTICS:

File PID Type Codec Language Seconds Bitrate Bytes Packets
---- --- ---- ----- -------- -------------- -------------- ------------- -----
01214.M2TS 4113 (0x1011) 0x1B AVC 585,877 17 997 1 318 038 247 7 171 502
01214.M2TS 4352 (0x1100) 0x81 AC3 eng (English) 585,877 192 14 065 152 91 570
01214.M2TS 4608 (0x1200) 0x90 PGS eng (English) 585,877 34 2 489 977 14 447
01214.M2TS 4609 (0x1201) 0x90 PGS zho (Chinese) 585,877 29 2 156 131 12 502
01214.M2TS 4610 (0x1202) 0x90 PGS kor (Korean) 585,877 22 1 606 254 9 491
01214.M2TS 4611 (0x1203) 0x90 PGS ces (Czech) 585,877 25 1 831 248 10 735
01214.M2TS 4612 (0x1204) 0x90 PGS hun (Hungarian) 585,877 29 2 105 726 12 214
01214.M2TS 4613 (0x1205) 0x90 PGS pol (Polish) 585,877 27 1 952 192 11 378
01214.M2TS 4614 (0x1206) 0x90 PGS rus (Russian) 585,877 29 2 130 591 12 356
01214.M2TS 4615 (0x1207) 0x90 PGS tha (Thai) 585,877 31 2 246 319 12 981

<---- END FORUMS PASTE ---->

QUICK SUMMARY:

Disc Title: CREED_II_2018_EUR_BLUEBIRD
Disc Size: 46 055 938 576 bytes
Protection: AACS
BD-Java: Yes
Playlist: 00205.MPLS
Size: 1 416 732 672 bytes
Length: 0:09:46.043
Total Bitrate: 19,34 Mbps
Video: MPEG-4 AVC Video / 17992 kbps / 1080p / 23,976 fps / 16:9 / High Profile 4.1
Audio: English / Dolby Digital Audio / 2.0 / 48 kHz / 192 kbps / Dolby Surround
Subtitle: English / 33,990 kbps
Subtitle: Chinese / 29,433 kbps
Subtitle: Korean / 21,927 kbps
Subtitle: Czech / 24,998 kbps
Subtitle: Hungarian / 28,745 kbps
Subtitle: Polish / 26,649 kbps
Subtitle: Russian / 29,084 kbps
Subtitle: Thai / 30,664 kbps

********************
PLAYLIST: 01311.MPLS
********************

<--- BEGIN FORUMS PASTE --->

Total Video
Title Codec Length Movie Size Disc Size Bitrate Bitrate Main Audio Track Secondary Audio Track
----- ------ ------- -------------- -------------- ------- ------- ------------------ ---------------------
01311.MPLS AVC 0:09:46 1 416 732 672 46 055 938 576 19,34 17,99 DD AC3 2.0 192Kbps

DISC INFO:

Disc Title: CREED_II_2018_EUR_BLUEBIRD
Disc Size: 46 055 938 576 bytes
Protection: AACS
BD-Java: Yes
BDInfo: 0.5.8

PLAYLIST REPORT:

Name: 01311.MPLS
Length: 0:09:46.043 (h:m:s.ms)
Size: 1 416 732 672 bytes
Total Bitrate: 19,34 Mbps

VIDEO:

Codec Bitrate Description
----- ------- -----------
MPEG-4 AVC Video 17992 kbps 1080p / 23,976 fps / 16:9 / High Profile 4.1

AUDIO:

Codec Language Bitrate Description
----- -------- ------- -----------
Dolby Digital Audio English 192 kbps 2.0 / 48 kHz / 192 kbps / Dolby Surround

SUBTITLES:

Codec Language Bitrate Description
----- -------- ------- -----------
Presentation Graphics English 33,990 kbps
Presentation Graphics Chinese 29,433 kbps
Presentation Graphics Korean 21,927 kbps
Presentation Graphics Czech 24,998 kbps
Presentation Graphics Hungarian 28,745 kbps
Presentation Graphics Polish 26,649 kbps
Presentation Graphics Russian 29,084 kbps
Presentation Graphics Thai 30,664 kbps

FILES:

Name Time In Length Size Total Bitrate
---- ------- ------ ---- -------------
01214.M2TS 0:00:00.000 0:09:46.043 1 416 732 672 19 340

CHAPTERS:

Number Time In Length Avg Video Rate Max 1-Sec Rate Max 1-Sec Time Max 5-Sec Rate Max 5-Sec Time Max 10Sec Rate Max 10Sec Time Avg Frame Size Max Frame Size Max Frame Time
------ ------- ------ -------------- -------------- -------------- -------------- -------------- -------------- -------------- -------------- -------------- --------------
1 0:00:00.000 0:02:49.002 17 990 kbps 25 245 kbps 00:00:03.420 21 189 kbps 00:00:03.420 20 857 kbps 00:00:34.826 93 770 bytes 267 936 bytes 00:00:43.418
2 0:02:49.002 0:03:06.686 17 991 kbps 30 354 kbps 00:03:10.982 27 654 kbps 00:02:52.380 27 247 kbps 00:02:52.380 93 795 bytes 404 879 bytes 00:02:51.671
3 0:05:55.688 0:01:02.687 17 998 kbps 23 884 kbps 00:05:58.107 19 516 kbps 00:06:36.229 18 929 kbps 00:06:28.346 93 832 bytes 249 890 bytes 00:06:09.035
4 0:06:58.376 0:02:47.667 17 994 kbps 24 582 kbps 00:08:23.127 22 203 kbps 00:08:23.085 21 505 kbps 00:09:33.531 93 837 bytes 212 334 bytes 00:09:21.644

STREAM DIAGNOSTICS:

File PID Type Codec Language Seconds Bitrate Bytes Packets
---- --- ---- ----- -------- -------------- -------------- ------------- -----
01214.M2TS 4113 (0x1011) 0x1B AVC 585,877 17 997 1 318 038 247 7 171 502
01214.M2TS 4352 (0x1100) 0x81 AC3 eng (English) 585,877 192 14 065 152 91 570
01214.M2TS 4608 (0x1200) 0x90 PGS eng (English) 585,877 34 2 489 977 14 447
01214.M2TS 4609 (0x1201) 0x90 PGS zho (Chinese) 585,877 29 2 156 131 12 502
01214.M2TS 4610 (0x1202) 0x90 PGS kor (Korean) 585,877 22 1 606 254 9 491
01214.M2TS 4611 (0x1203) 0x90 PGS ces (Czech) 585,877 25 1 831 248 10 735
01214.M2TS 4612 (0x1204) 0x90 PGS hun (Hungarian) 585,877 29 2 105 726 12 214
01214.M2TS 4613 (0x1205) 0x90 PGS pol (Polish) 585,877 27 1 952 192 11 378
01214.M2TS 4614 (0x1206) 0x90 PGS rus (Russian) 585,877 29 2 130 591 12 356
01214.M2TS 4615 (0x1207) 0x90 PGS tha (Thai) 585,877 31 2 246 319 12 981

<---- END FORUMS PASTE ---->

QUICK SUMMARY:

Disc Title: CREED_II_2018_EUR_BLUEBIRD
Disc Size: 46 055 938 576 bytes
Protection: AACS
BD-Java: Yes
Playlist: 01311.MPLS
Size: 1 416 732 672 bytes
Length: 0:09:46.043
Total Bitrate: 19,34 Mbps
Video: MPEG-4 AVC Video / 17992 kbps / 1080p / 23,976 fps / 16:9 / High Profile 4.1
Audio: English / Dolby Digital Audio / 2.0 / 48 kHz / 192 kbps / Dolby Surround
Subtitle: English / 33,990 kbps
Subtitle: Chinese / 29,433 kbps
Subtitle: Korean / 21,927 kbps
Subtitle: Czech / 24,998 kbps
Subtitle: Hungarian / 28,745 kbps
Subtitle: Polish / 26,649 kbps
Subtitle: Russian / 29,084 kbps
Subtitle: Thai / 30,664 kbps

********************
PLAYLIST: 00201.MPLS
********************

<--- BEGIN FORUMS PASTE --->

Total Video
Title Codec Length Movie Size Disc Size Bitrate Bitrate Main Audio Track Secondary Audio Track
----- ------ ------- -------------- -------------- ------- ------- ------------------ ---------------------
00201.MPLS AVC 0:07:16 1 066 733 568 46 055 938 576 19,56 17,88 DD AC3 2.0 192Kbps

DISC INFO:

Disc Title: CREED_II_2018_EUR_BLUEBIRD
Disc Size: 46 055 938 576 bytes
Protection: AACS
BD-Java: Yes
BDInfo: 0.5.8

PLAYLIST REPORT:

Name: 00201.MPLS
Length: 0:07:16.352 (h:m:s.ms)
Size: 1 066 733 568 bytes
Total Bitrate: 19,56 Mbps

VIDEO:

Codec Bitrate Description
----- ------- -----------
MPEG-4 AVC Video 17879 kbps 1080p / 23,976 fps / 16:9 / High Profile 4.1

AUDIO:

Codec Language Bitrate Description
----- -------- ------- -----------
Dolby Digital Audio English 192 kbps 2.0 / 48 kHz / 192 kbps / Dolby Surround

SUBTITLES:

Codec Language Bitrate Description
----- -------- ------- -----------
Presentation Graphics English 73,484 kbps
Presentation Graphics Chinese 67,415 kbps
Presentation Graphics Korean 57,725 kbps
Presentation Graphics Czech 61,605 kbps
Presentation Graphics Hungarian 66,192 kbps
Presentation Graphics Polish 59,975 kbps
Presentation Graphics Russian 76,877 kbps
Presentation Graphics Thai 72,302 kbps

FILES:

Name Time In Length Size Total Bitrate
---- ------- ------ ---- -------------
01215.M2TS 0:00:00.000 0:00:01.001 1 615 872 12 914
01210.M2TS 0:00:01.001 0:07:15.351 1 065 117 696 19 573

CHAPTERS:

Number Time In Length Avg Video Rate Max 1-Sec Rate Max 1-Sec Time Max 5-Sec Rate Max 5-Sec Time Max 10Sec Rate Max 10Sec Time Avg Frame Size Max Frame Size Max Frame Time
------ ------- ------ -------------- -------------- -------------- -------------- -------------- -------------- -------------- -------------- -------------- --------------
1 0:00:00.000 0:07:16.352 17 879 kbps 37 989 kbps 00:03:46.226 31 952 kbps 00:03:59.530 30 125 kbps 00:03:45.391 93 214 bytes 639 593 bytes 00:03:29.751

STREAM DIAGNOSTICS:

File PID Type Codec Language Seconds Bitrate Bytes Packets
---- --- ---- ----- -------- -------------- -------------- ------------- -----
01215.M2TS 4113 (0x1011) 0x1B AVC 0,834 14 328 1 493 968 8 128
01215.M2TS 4352 (0x1100) 0x81 AC3 eng (English) 0,834 236 24 576 160
01215.M2TS 4608 (0x1200) 0x90 PGS eng (English) 0,834 1 70 7
01215.M2TS 4609 (0x1201) 0x90 PGS zho (Chinese) 0,834 1 70 7
01215.M2TS 4610 (0x1202) 0x90 PGS kor (Korean) 0,834 1 70 7
01215.M2TS 4611 (0x1203) 0x90 PGS ces (Czech) 0,834 1 70 7
01215.M2TS 4612 (0x1204) 0x90 PGS hun (Hungarian) 0,834 1 70 7
01215.M2TS 4613 (0x1205) 0x90 PGS pol (Polish) 0,834 1 70 7
01215.M2TS 4614 (0x1206) 0x90 PGS rus (Russian) 0,834 1 70 7
01215.M2TS 4615 (0x1207) 0x90 PGS tha (Thai) 0,834 1 70 7
01210.M2TS 4113 (0x1011) 0x1B AVC 435,185 17 900 973 712 446 5 297 960
01210.M2TS 4352 (0x1100) 0x81 AC3 eng (English) 435,185 192 10 447 872 68 020
01210.M2TS 4608 (0x1200) 0x90 PGS eng (English) 435,185 74 4 008 058 22 774
01210.M2TS 4609 (0x1201) 0x90 PGS zho (Chinese) 435,185 68 3 677 024 20 994
01210.M2TS 4610 (0x1202) 0x90 PGS kor (Korean) 435,185 58 3 148 491 18 146
01210.M2TS 4611 (0x1203) 0x90 PGS ces (Czech) 435,185 62 3 360 121 19 266
01210.M2TS 4612 (0x1204) 0x90 PGS hun (Hungarian) 435,185 66 3 610 335 20 629
01210.M2TS 4613 (0x1205) 0x90 PGS pol (Polish) 435,185 60 3 271 219 18 788
01210.M2TS 4614 (0x1206) 0x90 PGS rus (Russian) 435,185 77 4 193 129 23 831
01210.M2TS 4615 (0x1207) 0x90 PGS tha (Thai) 435,185 72 3 943 600 22 463

<---- END FORUMS PASTE ---->

QUICK SUMMARY:

Disc Title: CREED_II_2018_EUR_BLUEBIRD
Disc Size: 46 055 938 576 bytes
Protection: AACS
BD-Java: Yes
Playlist: 00201.MPLS
Size: 1 066 733 568 bytes
Length: 0:07:16.352
Total Bitrate: 19,56 Mbps
Video: MPEG-4 AVC Video / 17879 kbps / 1080p / 23,976 fps / 16:9 / High Profile 4.1
Audio: English / Dolby Digital Audio / 2.0 / 48 kHz / 192 kbps / Dolby Surround
Subtitle: English / 73,484 kbps
Subtitle: Chinese / 67,415 kbps
Subtitle: Korean / 57,725 kbps
Subtitle: Czech / 61,605 kbps
Subtitle: Hungarian / 66,192 kbps
Subtitle: Polish / 59,975 kbps
Subtitle: Russian / 76,877 kbps
Subtitle: Thai / 72,302 kbps

********************
PLAYLIST: 01307.MPLS
********************

<--- BEGIN FORUMS PASTE --->

Total Video
Title Codec Length Movie Size Disc Size Bitrate Bitrate Main Audio Track Secondary Audio Track
----- ------ ------- -------------- -------------- ------- ------- ------------------ ---------------------
01307.MPLS AVC 0:07:15 1 065 117 696 46 055 938 576 19,57 17,89 DD AC3 2.0 192Kbps

DISC INFO:

Disc Title: CREED_II_2018_EUR_BLUEBIRD
Disc Size: 46 055 938 576 bytes
Protection: AACS
BD-Java: Yes
BDInfo: 0.5.8

PLAYLIST REPORT:

Name: 01307.MPLS
Length: 0:07:15.351 (h:m:s.ms)
Size: 1 065 117 696 bytes
Total Bitrate: 19,57 Mbps

VIDEO:

Codec Bitrate Description
----- ------- -----------
MPEG-4 AVC Video 17893 kbps 1080p / 23,976 fps / 16:9 / High Profile 4.1

AUDIO:

Codec Language Bitrate Description
----- -------- ------- -----------
Dolby Digital Audio English 192 kbps 2.0 / 48 kHz / 192 kbps / Dolby Surround

SUBTITLES:

Codec Language Bitrate Description
----- -------- ------- -----------
Presentation Graphics English 73,652 kbps
Presentation Graphics Chinese 67,569 kbps
Presentation Graphics Korean 57,857 kbps
Presentation Graphics Czech 61,745 kbps
Presentation Graphics Hungarian 66,343 kbps
Presentation Graphics Polish 60,112 kbps
Presentation Graphics Russian 77,053 kbps
Presentation Graphics Thai 72,467 kbps

FILES:

Name Time In Length Size Total Bitrate
---- ------- ------ ---- -------------
01210.M2TS 0:00:00.000 0:07:15.351 1 065 117 696 19 573

CHAPTERS:

Number Time In Length Avg Video Rate Max 1-Sec Rate Max 1-Sec Time Max 5-Sec Rate Max 5-Sec Time Max 10Sec Rate Max 10Sec Time Avg Frame Size Max Frame Size Max Frame Time
------ ------- ------ -------------- -------------- -------------- -------------- -------------- -------------- -------------- -------------- -------------- --------------
1 0:00:00.000 0:07:15.351 17 893 kbps 37 989 kbps 00:03:45.225 31 952 kbps 00:03:58.529 30 125 kbps 00:03:44.390 93 285 bytes 639 593 bytes 00:03:28.750

STREAM DIAGNOSTICS:

File PID Type Codec Language Seconds Bitrate Bytes Packets
---- --- ---- ----- -------- -------------- -------------- ------------- -----
01210.M2TS 4113 (0x1011) 0x1B AVC 435,185 17 900 973 712 446 5 297 960
01210.M2TS 4352 (0x1100) 0x81 AC3 eng (English) 435,185 192 10 447 872 68 020
01210.M2TS 4608 (0x1200) 0x90 PGS eng (English) 435,185 74 4 008 058 22 774
01210.M2TS 4609 (0x1201) 0x90 PGS zho (Chinese) 435,185 68 3 677 024 20 994
01210.M2TS 4610 (0x1202) 0x90 PGS kor (Korean) 435,185 58 3 148 491 18 146
01210.M2TS 4611 (0x1203) 0x90 PGS ces (Czech) 435,185 62 3 360 121 19 266
01210.M2TS 4612 (0x1204) 0x90 PGS hun (Hungarian) 435,185 66 3 610 335 20 629
01210.M2TS 4613 (0x1205) 0x90 PGS pol (Polish) 435,185 60 3 271 219 18 788
01210.M2TS 4614 (0x1206) 0x90 PGS rus (Russian) 435,185 77 4 193 129 23 831
01210.M2TS 4615 (0x1207) 0x90 PGS tha (Thai) 435,185 72 3 943 600 22 463

<---- END FORUMS PASTE ---->

QUICK SUMMARY:

Disc Title: CREED_II_2018_EUR_BLUEBIRD
Disc Size: 46 055 938 576 bytes
Protection: AACS
BD-Java: Yes
Playlist: 01307.MPLS
Size: 1 065 117 696 bytes
Length: 0:07:15.351
Total Bitrate: 19,57 Mbps
Video: MPEG-4 AVC Video / 17893 kbps / 1080p / 23,976 fps / 16:9 / High Profile 4.1
Audio: English / Dolby Digital Audio / 2.0 / 48 kHz / 192 kbps / Dolby Surround
Subtitle: English / 73,652 kbps
Subtitle: Chinese / 67,569 kbps
Subtitle: Korean / 57,857 kbps
Subtitle: Czech / 61,745 kbps
Subtitle: Hungarian / 66,343 kbps
Subtitle: Polish / 60,112 kbps
Subtitle: Russian / 77,053 kbps
Subtitle: Thai / 72,467 kbps

********************
PLAYLIST: 00203.MPLS
********************

<--- BEGIN FORUMS PASTE --->

Total Video
Title Codec Length Movie Size Disc Size Bitrate Bitrate Main Audio Track Secondary Audio Track
----- ------ ------- -------------- -------------- ------- ------- ------------------ ---------------------
00203.MPLS AVC 0:05:51 857 327 616 46 055 938 576 19,51 17,86 DD AC3 2.0 192Kbps

DISC INFO:

Disc Title: CREED_II_2018_EUR_BLUEBIRD
Disc Size: 46 055 938 576 bytes
Protection: AACS
BD-Java: Yes
BDInfo: 0.5.8

PLAYLIST REPORT:

Name: 00203.MPLS
Length: 0:05:51.601 (h:m:s.ms)
Size: 857 327 616 bytes
Total Bitrate: 19,51 Mbps

VIDEO:

Codec Bitrate Description
----- ------- -----------
MPEG-4 AVC Video 17861 kbps 1080p / 23,976 fps / 16:9 / High Profile 4.1

AUDIO:

Codec Language Bitrate Description
----- -------- ------- -----------
Dolby Digital Audio English 192 kbps 2.0 / 48 kHz / 192 kbps / Dolby Surround

SUBTITLES:

Codec Language Bitrate Description
----- -------- ------- -----------
Presentation Graphics English 71,356 kbps
Presentation Graphics Chinese 63,726 kbps
Presentation Graphics Korean 53,219 kbps
Presentation Graphics Czech 58,555 kbps
Presentation Graphics Hungarian 63,037 kbps
Presentation Graphics Polish 56,627 kbps
Presentation Graphics Russian 70,149 kbps
Presentation Graphics Thai 68,756 kbps

FILES:

Name Time In Length Size Total Bitrate
---- ------- ------ ---- -------------
01215.M2TS 0:00:00.000 0:00:01.001 1 615 872 12 914
01212.M2TS 0:00:01.001 0:05:50.600 855 711 744 19 526

CHAPTERS:

Number Time In Length Avg Video Rate Max 1-Sec Rate Max 1-Sec Time Max 5-Sec Rate Max 5-Sec Time Max 10Sec Rate Max 10Sec Time Avg Frame Size Max Frame Size Max Frame Time
------ ------- ------ -------------- -------------- -------------- -------------- -------------- -------------- -------------- -------------- -------------- --------------
1 0:00:00.000 0:05:51.601 17 861 kbps 40 399 kbps 00:01:19.829 34 852 kbps 00:01:18.286 28 742 kbps 00:01:17.202 93 119 bytes 479 595 bytes 00:00:26.526

STREAM DIAGNOSTICS:

File PID Type Codec Language Seconds Bitrate Bytes Packets
---- --- ---- ----- -------- -------------- -------------- ------------- -----
01215.M2TS 4113 (0x1011) 0x1B AVC 0,834 14 328 1 493 968 8 128
01215.M2TS 4352 (0x1100) 0x81 AC3 eng (English) 0,834 236 24 576 160
01215.M2TS 4608 (0x1200) 0x90 PGS eng (English) 0,834 1 70 7
01215.M2TS 4609 (0x1201) 0x90 PGS zho (Chinese) 0,834 1 70 7
01215.M2TS 4610 (0x1202) 0x90 PGS kor (Korean) 0,834 1 70 7
01215.M2TS 4611 (0x1203) 0x90 PGS ces (Czech) 0,834 1 70 7
01215.M2TS 4612 (0x1204) 0x90 PGS hun (Hungarian) 0,834 1 70 7
01215.M2TS 4613 (0x1205) 0x90 PGS pol (Polish) 0,834 1 70 7
01215.M2TS 4614 (0x1206) 0x90 PGS rus (Russian) 0,834 1 70 7
01215.M2TS 4615 (0x1207) 0x90 PGS tha (Thai) 0,834 1 70 7
01212.M2TS 4113 (0x1011) 0x1B AVC 350,433 17 886 783 500 405 4 263 027
01212.M2TS 4352 (0x1100) 0x81 AC3 eng (English) 350,433 192 8 414 976 54 785
01212.M2TS 4608 (0x1200) 0x90 PGS eng (English) 350,433 72 3 136 052 17 845
01212.M2TS 4609 (0x1201) 0x90 PGS zho (Chinese) 350,433 64 2 800 696 16 034
01212.M2TS 4610 (0x1202) 0x90 PGS kor (Korean) 350,433 53 2 338 934 13 537
01212.M2TS 4611 (0x1203) 0x90 PGS ces (Czech) 350,433 59 2 573 445 14 816
01212.M2TS 4612 (0x1204) 0x90 PGS hun (Hungarian) 350,433 63 2 770 402 15 865
01212.M2TS 4613 (0x1205) 0x90 PGS pol (Polish) 350,433 57 2 488 682 14 303
01212.M2TS 4614 (0x1206) 0x90 PGS rus (Russian) 350,433 70 3 083 008 17 591
01212.M2TS 4615 (0x1207) 0x90 PGS tha (Thai) 350,433 69 3 021 778 17 251

<---- END FORUMS PASTE ---->

QUICK SUMMARY:

Disc Title: CREED_II_2018_EUR_BLUEBIRD
Disc Size: 46 055 938 576 bytes
Protection: AACS
BD-Java: Yes
Playlist: 00203.MPLS
Size: 857 327 616 bytes
Length: 0:05:51.601
Total Bitrate: 19,51 Mbps
Video: MPEG-4 AVC Video / 17861 kbps / 1080p / 23,976 fps / 16:9 / High Profile 4.1
Audio: English / Dolby Digital Audio / 2.0 / 48 kHz / 192 kbps / Dolby Surround
Subtitle: English / 71,356 kbps
Subtitle: Chinese / 63,726 kbps
Subtitle: Korean / 53,219 kbps
Subtitle: Czech / 58,555 kbps
Subtitle: Hungarian / 63,037 kbps
Subtitle: Polish / 56,627 kbps
Subtitle: Russian / 70,149 kbps
Subtitle: Thai / 68,756 kbps

********************
PLAYLIST: 01309.MPLS
********************

<--- BEGIN FORUMS PASTE --->

Total Video
Title Codec Length Movie Size Disc Size Bitrate Bitrate Main Audio Track Secondary Audio Track
----- ------ ------- -------------- -------------- ------- ------- ------------------ ---------------------
01309.MPLS AVC 0:05:50 855 711 744 46 055 938 576 19,53 17,88 DD AC3 2.0 192Kbps

DISC INFO:

Disc Title: CREED_II_2018_EUR_BLUEBIRD
Disc Size: 46 055 938 576 bytes
Protection: AACS
BD-Java: Yes
BDInfo: 0.5.8

PLAYLIST REPORT:

Name: 01309.MPLS
Length: 0:05:50.600 (h:m:s.ms)
Size: 855 711 744 bytes
Total Bitrate: 19,53 Mbps

VIDEO:

Codec Bitrate Description
----- ------- -----------
MPEG-4 AVC Video 17878 kbps 1080p / 23,976 fps / 16:9 / High Profile 4.1

AUDIO:

Codec Language Bitrate Description
----- -------- ------- -----------
Dolby Digital Audio English 192 kbps 2.0 / 48 kHz / 192 kbps / Dolby Surround

SUBTITLES:

Codec Language Bitrate Description
----- -------- ------- -----------
Presentation Graphics English 71,558 kbps
Presentation Graphics Chinese 63,906 kbps
Presentation Graphics Korean 53,370 kbps
Presentation Graphics Czech 58,721 kbps
Presentation Graphics Hungarian 63,215 kbps
Presentation Graphics Polish 56,787 kbps
Presentation Graphics Russian 70,348 kbps
Presentation Graphics Thai 68,951 kbps

FILES:

Name Time In Length Size Total Bitrate
---- ------- ------ ---- -------------
01212.M2TS 0:00:00.000 0:05:50.600 855 711 744 19 526

CHAPTERS:

Number Time In Length Avg Video Rate Max 1-Sec Rate Max 1-Sec Time Max 5-Sec Rate Max 5-Sec Time Max 10Sec Rate Max 10Sec Time Avg Frame Size Max Frame Size Max Frame Time
------ ------- ------ -------------- -------------- -------------- -------------- -------------- -------------- -------------- -------------- -------------- --------------
1 0:00:00.000 0:05:50.600 17 878 kbps 40 399 kbps 00:01:18.828 34 852 kbps 00:01:17.285 28 742 kbps 00:01:16.201 93 207 bytes 479 595 bytes 00:00:25.525

STREAM DIAGNOSTICS:

File PID Type Codec Language Seconds Bitrate Bytes Packets
---- --- ---- ----- -------- -------------- -------------- ------------- -----
01212.M2TS 4113 (0x1011) 0x1B AVC 350,433 17 886 783 500 405 4 263 027
01212.M2TS 4352 (0x1100) 0x81 AC3 eng (English) 350,433 192 8 414 976 54 785
01212.M2TS 4608 (0x1200) 0x90 PGS eng (English) 350,433 72 3 136 052 17 845
01212.M2TS 4609 (0x1201) 0x90 PGS zho (Chinese) 350,433 64 2 800 696 16 034
01212.M2TS 4610 (0x1202) 0x90 PGS kor (Korean) 350,433 53 2 338 934 13 537
01212.M2TS 4611 (0x1203) 0x90 PGS ces (Czech) 350,433 59 2 573 445 14 816
01212.M2TS 4612 (0x1204) 0x90 PGS hun (Hungarian) 350,433 63 2 770 402 15 865
01212.M2TS 4613 (0x1205) 0x90 PGS pol (Polish) 350,433 57 2 488 682 14 303
01212.M2TS 4614 (0x1206) 0x90 PGS rus (Russian) 350,433 70 3 083 008 17 591
01212.M2TS 4615 (0x1207) 0x90 PGS tha (Thai) 350,433 69 3 021 778 17 251

<---- END FORUMS PASTE ---->

QUICK SUMMARY:

Disc Title: CREED_II_2018_EUR_BLUEBIRD
Disc Size: 46 055 938 576 bytes
Protection: AACS
BD-Java: Yes
Playlist: 01309.MPLS
Size: 855 711 744 bytes
Length: 0:05:50.600
Total Bitrate: 19,53 Mbps
Video: MPEG-4 AVC Video / 17878 kbps / 1080p / 23,976 fps / 16:9 / High Profile 4.1
Audio: English / Dolby Digital Audio / 2.0 / 48 kHz / 192 kbps / Dolby Surround
Subtitle: English / 71,558 kbps
Subtitle: Chinese / 63,906 kbps
Subtitle: Korean / 53,370 kbps
Subtitle: Czech / 58,721 kbps
Subtitle: Hungarian / 63,215 kbps
Subtitle: Polish / 56,787 kbps
Subtitle: Russian / 70,348 kbps
Subtitle: Thai / 68,951 kbps

********************
PLAYLIST: 00202.MPLS
********************

<--- BEGIN FORUMS PASTE --->

Total Video
Title Codec Length Movie Size Disc Size Bitrate Bitrate Main Audio Track Secondary Audio Track
----- ------ ------- -------------- -------------- ------- ------- ------------------ ---------------------
00202.MPLS AVC 0:05:43 837 138 432 46 055 938 576 19,52 17,84 DD AC3 2.0 192Kbps

DISC INFO:

Disc Title: CREED_II_2018_EUR_BLUEBIRD
Disc Size: 46 055 938 576 bytes
Protection: AACS
BD-Java: Yes
BDInfo: 0.5.8

PLAYLIST REPORT:

Name: 00202.MPLS
Length: 0:05:43.176 (h:m:s.ms)
Size: 837 138 432 bytes
Total Bitrate: 19,52 Mbps

VIDEO:

Codec Bitrate Description
----- ------- -----------
MPEG-4 AVC Video 17844 kbps 1080p / 23,976 fps / 16:9 / High Profile 4.1

AUDIO:

Codec Language Bitrate Description
----- -------- ------- -----------
Dolby Digital Audio English 192 kbps 2.0 / 48 kHz / 192 kbps / Dolby Surround

SUBTITLES:

Codec Language Bitrate Description
----- -------- ------- -----------
Presentation Graphics English 72,823 kbps
Presentation Graphics Chinese 66,773 kbps
Presentation Graphics Korean 51,114 kbps
Presentation Graphics Czech 61,524 kbps
Presentation Graphics Hungarian 65,697 kbps
Presentation Graphics Polish 61,404 kbps
Presentation Graphics Russian 78,325 kbps
Presentation Graphics Thai 71,979 kbps

FILES:

Name Time In Length Size Total Bitrate
---- ------- ------ ---- -------------
01215.M2TS 0:00:00.000 0:00:01.001 1 615 872 12 914
01211.M2TS 0:00:01.001 0:05:42.175 835 522 560 19 534

CHAPTERS:

Number Time In Length Avg Video Rate Max 1-Sec Rate Max 1-Sec Time Max 5-Sec Rate Max 5-Sec Time Max 10Sec Rate Max 10Sec Time Avg Frame Size Max Frame Size Max Frame Time
------ ------- ------ -------------- -------------- -------------- -------------- -------------- -------------- -------------- -------------- -------------- --------------
1 0:00:00.000 0:05:43.176 17 844 kbps 37 794 kbps 00:05:20.570 26 313 kbps 00:00:38.204 24 374 kbps 00:00:38.204 93 031 bytes 479 122 bytes 00:00:39.247

STREAM DIAGNOSTICS:

File PID Type Codec Language Seconds Bitrate Bytes Packets
---- --- ---- ----- -------- -------------- -------------- ------------- -----
01215.M2TS 4113 (0x1011) 0x1B AVC 0,834 14 328 1 493 968 8 128
01215.M2TS 4352 (0x1100) 0x81 AC3 eng (English) 0,834 236 24 576 160
01215.M2TS 4608 (0x1200) 0x90 PGS eng (English) 0,834 1 70 7
01215.M2TS 4609 (0x1201) 0x90 PGS zho (Chinese) 0,834 1 70 7
01215.M2TS 4610 (0x1202) 0x90 PGS kor (Korean) 0,834 1 70 7
01215.M2TS 4611 (0x1203) 0x90 PGS ces (Czech) 0,834 1 70 7
01215.M2TS 4612 (0x1204) 0x90 PGS hun (Hungarian) 0,834 1 70 7
01215.M2TS 4613 (0x1205) 0x90 PGS pol (Polish) 0,834 1 70 7
01215.M2TS 4614 (0x1206) 0x90 PGS rus (Russian) 0,834 1 70 7
01215.M2TS 4615 (0x1207) 0x90 PGS tha (Thai) 0,834 1 70 7
01211.M2TS 4113 (0x1011) 0x1B AVC 342,008 17 870 763 967 320 4 156 794
01211.M2TS 4352 (0x1100) 0x81 AC3 eng (English) 342,008 192 8 212 224 53 465
01211.M2TS 4608 (0x1200) 0x90 PGS eng (English) 342,008 73 3 123 807 17 756
01211.M2TS 4609 (0x1201) 0x90 PGS zho (Chinese) 342,008 67 2 864 294 16 374
01211.M2TS 4610 (0x1202) 0x90 PGS kor (Korean) 342,008 51 2 192 573 12 740
01211.M2TS 4611 (0x1203) 0x90 PGS ces (Czech) 342,008 62 2 639 124 15 144
01211.M2TS 4612 (0x1204) 0x90 PGS hun (Hungarian) 342,008 66 2 818 154 16 104
01211.M2TS 4613 (0x1205) 0x90 PGS pol (Polish) 342,008 62 2 633 970 15 112
01211.M2TS 4614 (0x1206) 0x90 PGS rus (Russian) 342,008 79 3 359 857 19 087
01211.M2TS 4615 (0x1207) 0x90 PGS tha (Thai) 342,008 72 3 087 625 17 608

<---- END FORUMS PASTE ---->

QUICK SUMMARY:

Disc Title: CREED_II_2018_EUR_BLUEBIRD
Disc Size: 46 055 938 576 bytes
Protection: AACS
BD-Java: Yes
Playlist: 00202.MPLS
Size: 837 138 432 bytes
Length: 0:05:43.176
Total Bitrate: 19,52 Mbps
Video: MPEG-4 AVC Video / 17844 kbps / 1080p / 23,976 fps / 16:9 / High Profile 4.1
Audio: English / Dolby Digital Audio / 2.0 / 48 kHz / 192 kbps / Dolby Surround
Subtitle: English / 72,823 kbps
Subtitle: Chinese / 66,773 kbps
Subtitle: Korean / 51,114 kbps
Subtitle: Czech / 61,524 kbps
Subtitle: Hungarian / 65,697 kbps
Subtitle: Polish / 61,404 kbps
Subtitle: Russian / 78,325 kbps
Subtitle: Thai / 71,979 kbps

********************
PLAYLIST: 01308.MPLS
********************

<--- BEGIN FORUMS PASTE --->

Total Video
Title Codec Length Movie Size Disc Size Bitrate Bitrate Main Audio Track Secondary Audio Track
----- ------ ------- -------------- -------------- ------- ------- ------------------ ---------------------
01308.MPLS AVC 0:05:42 835 522 560 46 055 938 576 19,53 17,86 DD AC3 2.0 192Kbps

DISC INFO:

Disc Title: CREED_II_2018_EUR_BLUEBIRD
Disc Size: 46 055 938 576 bytes
Protection: AACS
BD-Java: Yes
BDInfo: 0.5.8

PLAYLIST REPORT:

Name: 01308.MPLS
Length: 0:05:42.175 (h:m:s.ms)
Size: 835 522 560 bytes
Total Bitrate: 19,53 Mbps

VIDEO:

Codec Bitrate Description
----- ------- -----------
MPEG-4 AVC Video 17861 kbps 1080p / 23,976 fps / 16:9 / High Profile 4.1

AUDIO:

Codec Language Bitrate Description
----- -------- ------- -----------
Dolby Digital Audio English 192 kbps 2.0 / 48 kHz / 192 kbps / Dolby Surround

SUBTITLES:

Codec Language Bitrate Description
----- -------- ------- -----------
Presentation Graphics English 73,034 kbps
Presentation Graphics Chinese 66,967 kbps
Presentation Graphics Korean 51,262 kbps
Presentation Graphics Czech 61,702 kbps
Presentation Graphics Hungarian 65,888 kbps
Presentation Graphics Polish 61,582 kbps
Presentation Graphics Russian 78,553 kbps
Presentation Graphics Thai 72,188 kbps

FILES:

Name Time In Length Size Total Bitrate
---- ------- ------ ---- -------------
01211.M2TS 0:00:00.000 0:05:42.175 835 522 560 19 534

CHAPTERS:

Number Time In Length Avg Video Rate Max 1-Sec Rate Max 1-Sec Time Max 5-Sec Rate Max 5-Sec Time Max 10Sec Rate Max 10Sec Time Avg Frame Size Max Frame Size Max Frame Time
------ ------- ------ -------------- -------------- -------------- -------------- -------------- -------------- -------------- -------------- -------------- --------------
1 0:00:00.000 0:05:42.175 17 861 kbps 37 794 kbps 00:05:19.569 26 313 kbps 00:00:37.203 24 374 kbps 00:00:37.203 93 121 bytes 479 122 bytes 00:00:38.246

STREAM DIAGNOSTICS:

File PID Type Codec Language Seconds Bitrate Bytes Packets
---- --- ---- ----- -------- -------------- -------------- ------------- -----
01211.M2TS 4113 (0x1011) 0x1B AVC 342,008 17 870 763 967 320 4 156 794
01211.M2TS 4352 (0x1100) 0x81 AC3 eng (English) 342,008 192 8 212 224 53 465
01211.M2TS 4608 (0x1200) 0x90 PGS eng (English) 342,008 73 3 123 807 17 756
01211.M2TS 4609 (0x1201) 0x90 PGS zho (Chinese) 342,008 67 2 864 294 16 374
01211.M2TS 4610 (0x1202) 0x90 PGS kor (Korean) 342,008 51 2 192 573 12 740
01211.M2TS 4611 (0x1203) 0x90 PGS ces (Czech) 342,008 62 2 639 124 15 144
01211.M2TS 4612 (0x1204) 0x90 PGS hun (Hungarian) 342,008 66 2 818 154 16 104
01211.M2TS 4613 (0x1205) 0x90 PGS pol (Polish) 342,008 62 2 633 970 15 112
01211.M2TS 4614 (0x1206) 0x90 PGS rus (Russian) 342,008 79 3 359 857 19 087
01211.M2TS 4615 (0x1207) 0x90 PGS tha (Thai) 342,008 72 3 087 625 17 608

<---- END FORUMS PASTE ---->

QUICK SUMMARY:

Disc Title: CREED_II_2018_EUR_BLUEBIRD
Disc Size: 46 055 938 576 bytes
Protection: AACS
BD-Java: Yes
Playlist: 01308.MPLS
Size: 835 522 560 bytes
Length: 0:05:42.175
Total Bitrate: 19,53 Mbps
Video: MPEG-4 AVC Video / 17861 kbps / 1080p / 23,976 fps / 16:9 / High Profile 4.1
Audio: English / Dolby Digital Audio / 2.0 / 48 kHz / 192 kbps / Dolby Surround
Subtitle: English / 73,034 kbps
Subtitle: Chinese / 66,967 kbps
Subtitle: Korean / 51,262 kbps
Subtitle: Czech / 61,702 kbps
Subtitle: Hungarian / 65,888 kbps
Subtitle: Polish / 61,582 kbps
Subtitle: Russian / 78,553 kbps
Subtitle: Thai / 72,188 kbps

********************
PLAYLIST: 00055.MPLS
********************

<--- BEGIN FORUMS PASTE --->

Total Video
Title Codec Length Movie Size Disc Size Bitrate Bitrate Main Audio Track Secondary Audio Track
----- ------ ------- -------------- -------------- ------- ------- ------------------ ---------------------
00055.MPLS AVC 0:05:40 178 225 152 46 055 938 576 4,19 3,95

DISC INFO:

Disc Title: CREED_II_2018_EUR_BLUEBIRD
Disc Size: 46 055 938 576 bytes
Protection: AACS
BD-Java: Yes
BDInfo: 0.5.8

PLAYLIST REPORT:

Name: 00055.MPLS
Length: 0:05:40.298 (h:m:s.ms)
Size: 178 225 152 bytes
Total Bitrate: 4,19 Mbps

VIDEO:

Codec Bitrate Description
----- ------- -----------
MPEG-4 AVC Video 3946 kbps 1080p / 23,976 fps / 16:9 / Main Profile 4.0

FILES:

Name Time In Length Size Total Bitrate
---- ------- ------ ---- -------------
01072.M2TS 0:00:00.000 0:05:40.298 178 225 152 4 190

CHAPTERS:

Number Time In Length Avg Video Rate Max 1-Sec Rate Max 1-Sec Time Max 5-Sec Rate Max 5-Sec Time Max 10Sec Rate Max 10Sec Time Avg Frame Size Max Frame Size Max Frame Time
------ ------- ------ -------------- -------------- -------------- -------------- -------------- -------------- -------------- -------------- -------------- --------------
1 0:00:00.000 0:00:10.010 3 925 kbps 5 996 kbps 00:00:00.625 4 221 kbps 00:00:03.294 3 630 kbps 00:00:00.000 20 376 bytes 368 855 bytes 00:00:00.792
2 0:00:10.010 0:00:10.009 3 666 kbps 6 343 kbps 00:00:19.018 4 210 kbps 00:00:13.304 3 666 kbps 00:00:10.010 19 114 bytes 416 588 bytes 00:00:20.020
3 0:00:20.020 0:00:10.010 4 229 kbps 7 368 kbps 00:00:29.029 4 864 kbps 00:00:23.314 4 229 kbps 00:00:20.020 22 050 bytes 486 613 bytes 00:00:30.030
4 0:00:30.030 0:00:10.009 4 655 kbps 7 835 kbps 00:00:30.655 5 500 kbps 00:00:33.324 4 655 kbps 00:00:30.030 24 268 bytes 486 612 bytes 00:00:34.993
5 0:00:40.040 0:00:10.009 4 089 kbps 7 341 kbps 00:00:49.049 4 675 kbps 00:00:43.334 4 089 kbps 00:00:40.040 21 320 bytes 500 314 bytes 00:00:50.050
6 0:00:50.050 0:00:10.010 4 994 kbps 8 449 kbps 00:00:50.717 5 930 kbps 00:00:53.344 4 994 kbps 00:00:50.050 26 038 bytes 522 423 bytes 00:00:51.676
7 0:01:00.060 0:00:10.010 3 996 kbps 6 652 kbps 00:01:00.685 4 677 kbps 00:01:03.354 3 996 kbps 00:01:00.060 20 833 bytes 410 733 bytes 00:01:00.852
8 0:01:10.070 0:00:10.009 3 723 kbps 6 184 kbps 00:01:15.742 4 355 kbps 00:01:13.364 3 723 kbps 00:01:10.070 19 408 bytes 379 795 bytes 00:01:13.406
9 0:01:20.080 0:00:10.010 3 449 kbps 5 974 kbps 00:01:29.089 3 962 kbps 00:01:23.374 3 449 kbps 00:01:20.080 17 983 bytes 393 036 bytes 00:01:30.090
10 0:01:30.090 0:00:10.009 3 986 kbps 6 763 kbps 00:01:30.715 4 761 kbps 00:01:33.384 3 986 kbps 00:01:30.090 20 780 bytes 415 026 bytes 00:01:30.882
11 0:01:40.100 0:00:10.010 2 783 kbps 5 317 kbps 00:01:49.109 3 128 kbps 00:01:43.394 2 783 kbps 00:01:40.100 14 508 bytes 385 592 bytes 00:01:50.110
12 0:01:50.110 0:00:10.010 3 780 kbps 6 249 kbps 00:01:50.735 4 394 kbps 00:01:53.404 3 780 kbps 00:01:50.110 19 710 bytes 388 693 bytes 00:02:00.120
13 0:02:00.120 0:00:10.009 3 933 kbps 6 627 kbps 00:02:00.745 4 660 kbps 00:02:03.414 3 933 kbps 00:02:00.120 20 505 bytes 408 598 bytes 00:02:04.249
14 0:02:10.130 0:00:10.010 3 139 kbps 5 268 kbps 00:02:19.139 3 624 kbps 00:02:13.424 3 139 kbps 00:02:10.130 16 367 bytes 334 694 bytes 00:02:20.140
15 0:02:20.140 0:00:10.009 3 401 kbps 6 362 kbps 00:02:29.149 3 842 kbps 00:02:23.434 3 401 kbps 00:02:20.140 17 730 bytes 451 799 bytes 00:02:30.150
16 0:02:30.150 0:00:10.009 4 688 kbps 7 825 kbps 00:02:35.822 5 498 kbps 00:02:33.444 4 688 kbps 00:02:30.150 24 441 bytes 484 423 bytes 00:02:36.823
17 0:02:40.160 0:00:10.009 4 480 kbps 7 501 kbps 00:02:40.785 5 282 kbps 00:02:43.454 4 480 kbps 00:02:40.160 23 359 bytes 460 718 bytes 00:02:40.952
18 0:02:50.169 0:00:10.010 3 782 kbps 6 759 kbps 00:02:59.179 4 318 kbps 00:02:53.464 3 782 kbps 00:02:50.170 19 715 bytes 459 181 bytes 00:03:00.180
19 0:03:00.180 0:00:10.009 4 426 kbps 7 469 kbps 00:03:00.805 5 258 kbps 00:03:03.474 4 426 kbps 00:03:00.180 23 077 bytes 459 472 bytes 00:03:01.806
20 0:03:10.190 0:00:10.009 3 465 kbps 6 490 kbps 00:03:19.198 3 902 kbps 00:03:13.484 3 465 kbps 00:03:10.190 18 066 bytes 462 585 bytes 00:03:20.200
21 0:03:20.200 0:00:10.010 4 591 kbps 7 700 kbps 00:03:20.867 5 415 kbps 00:03:23.494 4 591 kbps 00:03:20.200 23 935 bytes 474 375 bytes 00:03:22.660
22 0:03:30.210 0:00:10.009 3 991 kbps 6 632 kbps 00:03:30.835 4 659 kbps 00:03:33.504 3 991 kbps 00:03:30.210 20 805 bytes 410 848 bytes 00:03:36.883
23 0:03:40.220 0:00:10.009 3 903 kbps 6 643 kbps 00:03:49.229 4 508 kbps 00:03:43.514 3 903 kbps 00:03:40.220 20 349 bytes 427 418 bytes 00:03:50.230
24 0:03:50.230 0:00:10.010 4 140 kbps 6 946 kbps 00:03:50.855 4 888 kbps 00:03:53.524 4 140 kbps 00:03:50.230 21 584 bytes 427 660 bytes 00:03:51.022
25 0:04:00.240 0:00:10.009 3 555 kbps 6 340 kbps 00:04:09.249 4 063 kbps 00:04:03.534 3 555 kbps 00:04:00.240 18 534 bytes 429 016 bytes 00:04:10.250
26 0:04:10.250 0:00:10.009 4 373 kbps 7 572 kbps 00:04:19.259 5 029 kbps 00:04:13.544 4 373 kbps 00:04:10.250 22 797 bytes 497 577 bytes 00:04:20.260
27 0:04:20.260 0:00:10.009 5 092 kbps 8 475 kbps 00:04:20.885 5 963 kbps 00:04:23.554 5 092 kbps 00:04:20.260 26 549 bytes 522 083 bytes 00:04:21.052
28 0:04:30.270 0:00:10.009 4 626 kbps 7 737 kbps 00:04:30.895 5 448 kbps 00:04:33.564 4 626 kbps 00:04:30.270 24 120 bytes 475 701 bytes 00:04:33.606
29 0:04:40.279 0:00:10.010 3 822 kbps 6 491 kbps 00:04:40.905 4 569 kbps 00:04:43.574 3 822 kbps 00:04:40.280 19 927 bytes 398 662 bytes 00:04:44.409
30 0:04:50.290 0:00:10.009 2 641 kbps 4 692 kbps 00:04:59.299 3 009 kbps 00:04:53.584 2 641 kbps 00:04:50.290 13 768 bytes 318 002 bytes 00:05:00.300
31 0:05:00.300 0:00:10.009 3 158 kbps 5 307 kbps 00:05:09.309 3 651 kbps 00:05:03.594 3 158 kbps 00:05:00.300 16 464 bytes 336 941 bytes 00:05:10.310
32 0:05:10.310 0:00:10.009 3 380 kbps 6 012 kbps 00:05:19.319 3 862 kbps 00:05:13.604 3 380 kbps 00:05:10.310 17 620 bytes 406 736 bytes 00:05:20.320
33 0:05:20.320 0:00:10.009 4 210 kbps 7 080 kbps 00:05:29.329 4 872 kbps 00:05:23.614 4 210 kbps 00:05:20.320 21 950 bytes 449 990 bytes 00:05:30.330
34 0:05:30.330 0:00:09.968 4 093 kbps 7 321 kbps 00:05:30.997 5 155 kbps 00:05:33.624 0 kbps 00:00:00.000 21 427 bytes 450 341 bytes 00:05:33.666

STREAM DIAGNOSTICS:

File PID Type Codec Language Seconds Bitrate Bytes Packets
---- --- ---- ----- -------- -------------- -------------- ------------- -----
01072.M2TS 4113 (0x1011) 0x1B AVC 340,173 3 947 167 852 480 916 843

<---- END FORUMS PASTE ---->

QUICK SUMMARY:

Disc Title: CREED_II_2018_EUR_BLUEBIRD
Disc Size: 46 055 938 576 bytes
Protection: AACS
BD-Java: Yes
Playlist: 00055.MPLS
Size: 178 225 152 bytes
Length: 0:05:40.298
Total Bitrate: 4,19 Mbps
Video: MPEG-4 AVC Video / 3946 kbps / 1080p / 23,976 fps / 16:9 / Main Profile 4.0

********************
PLAYLIST: 00120.MPLS
********************

<--- BEGIN FORUMS PASTE --->

Total Video
Title Codec Length Movie Size Disc Size Bitrate Bitrate Main Audio Track Secondary Audio Track
----- ------ ------- -------------- -------------- ------- ------- ------------------ ---------------------
00120.MPLS AVC 0:02:44 227 641 344 46 055 938 576 11,10 10,34 DD AC3 2.0 192Kbps

DISC INFO:

Disc Title: CREED_II_2018_EUR_BLUEBIRD
Disc Size: 46 055 938 576 bytes
Protection: AACS
BD-Java: Yes
BDInfo: 0.5.8

PLAYLIST REPORT:

Name: 00120.MPLS
Length: 0:02:44.080 (h:m:s.ms)
Size: 227 641 344 bytes
Total Bitrate: 11,10 Mbps

VIDEO:

Codec Bitrate Description
----- ------- -----------
MPEG-4 AVC Video 10338 kbps 1080p / 23,976 fps / 16:9 / High Profile 4.1

AUDIO:

Codec Language Bitrate Description
----- -------- ------- -----------
Dolby Digital Audio English 192 kbps 2.0 / 48 kHz / 192 kbps / DN -4dB / Dolby Surround

FILES:

Name Time In Length Size Total Bitrate
---- ------- ------ ---- -------------
01088.M2TS 0:00:00.000 0:02:44.080 227 641 344 11 099

CHAPTERS:

Number Time In Length Avg Video Rate Max 1-Sec Rate Max 1-Sec Time Max 5-Sec Rate Max 5-Sec Time Max 10Sec Rate Max 10Sec Time Avg Frame Size Max Frame Size Max Frame Time
------ ------- ------ -------------- -------------- -------------- -------------- -------------- -------------- -------------- -------------- -------------- --------------
1 0:00:00.000 0:00:01.001 13 515 kbps 8 722 kbps 00:00:00.000 0 kbps 00:00:00.000 0 kbps 00:00:00.000 67 644 bytes 776 771 bytes 00:00:00.875
2 0:00:01.001 0:00:01.000 9 422 kbps 9 422 kbps 00:00:01.001 0 kbps 00:00:00.000 0 kbps 00:00:00.000 49 123 bytes 803 162 bytes 00:00:01.876
3 0:00:02.002 0:02:42.078 10 324 kbps 15 667 kbps 00:01:58.076 11 506 kbps 00:02:30.984 10 797 kbps 00:01:16.534 53 838 bytes 807 063 bytes 00:00:02.752

STREAM DIAGNOSTICS:

File PID Type Codec Language Seconds Bitrate Bytes Packets
---- --- ---- ----- -------- -------------- -------------- ------------- -----
01088.M2TS 4113 (0x1011) 0x1B AVC 163,955 10 346 212 029 138 1 154 578
01088.M2TS 4352 (0x1100) 0x81 AC3 eng (English) 163,955 191 3 924 480 25 550

<---- END FORUMS PASTE ---->

QUICK SUMMARY:

Disc Title: CREED_II_2018_EUR_BLUEBIRD
Disc Size: 46 055 938 576 bytes
Protection: AACS
BD-Java: Yes
Playlist: 00120.MPLS
Size: 227 641 344 bytes
Length: 0:02:44.080
Total Bitrate: 11,10 Mbps
Video: MPEG-4 AVC Video / 10338 kbps / 1080p / 23,976 fps / 16:9 / High Profile 4.1
Audio: English / Dolby Digital Audio / 2.0 / 48 kHz / 192 kbps / DN -4dB / Dolby Surround

********************
PLAYLIST: 00140.MPLS
********************

<--- BEGIN FORUMS PASTE --->

Total Video
Title Codec Length Movie Size Disc Size Bitrate Bitrate Main Audio Track Secondary Audio Track
----- ------ ------- -------------- -------------- ------- ------- ------------------ ---------------------
00140.MPLS AVC 0:02:44 227 641 344 46 055 938 576 11,10 10,34 DD AC3 2.0 192Kbps

DISC INFO:

Disc Title: CREED_II_2018_EUR_BLUEBIRD
Disc Size: 46 055 938 576 bytes
Protection: AACS
BD-Java: Yes
BDInfo: 0.5.8

PLAYLIST REPORT:

Name: 00140.MPLS
Length: 0:02:44.080 (h:m:s.ms)
Size: 227 641 344 bytes
Total Bitrate: 11,10 Mbps

VIDEO:

Codec Bitrate Description
----- ------- -----------
MPEG-4 AVC Video 10338 kbps 1080p / 23,976 fps / 16:9 / High Profile 4.1

AUDIO:

Codec Language Bitrate Description
----- -------- ------- -----------
Dolby Digital Audio English 192 kbps 2.0 / 48 kHz / 192 kbps / DN -4dB / Dolby Surround

FILES:

Name Time In Length Size Total Bitrate
---- ------- ------ ---- -------------
01088.M2TS 0:00:00.000 0:02:44.080 227 641 344 11 099

CHAPTERS:

Number Time In Length Avg Video Rate Max 1-Sec Rate Max 1-Sec Time Max 5-Sec Rate Max 5-Sec Time Max 10Sec Rate Max 10Sec Time Avg Frame Size Max Frame Size Max Frame Time
------ ------- ------ -------------- -------------- -------------- -------------- -------------- -------------- -------------- -------------- -------------- --------------
1 0:00:00.000 0:00:01.001 13 515 kbps 8 722 kbps 00:00:00.000 0 kbps 00:00:00.000 0 kbps 00:00:00.000 67 644 bytes 776 771 bytes 00:00:00.875
2 0:00:01.001 0:00:01.000 9 422 kbps 9 422 kbps 00:00:01.001 0 kbps 00:00:00.000 0 kbps 00:00:00.000 49 123 bytes 803 162 bytes 00:00:01.876
3 0:00:02.002 0:02:42.078 10 324 kbps 15 667 kbps 00:01:58.076 11 506 kbps 00:02:30.984 10 797 kbps 00:01:16.534 53 838 bytes 807 063 bytes 00:00:02.752

STREAM DIAGNOSTICS:

File PID Type Codec Language Seconds Bitrate Bytes Packets
---- --- ---- ----- -------- -------------- -------------- ------------- -----
01088.M2TS 4113 (0x1011) 0x1B AVC 163,955 10 346 212 029 138 1 154 578
01088.M2TS 4352 (0x1100) 0x81 AC3 eng (English) 163,955 191 3 924 480 25 550

<---- END FORUMS PASTE ---->

QUICK SUMMARY:

Disc Title: CREED_II_2018_EUR_BLUEBIRD
Disc Size: 46 055 938 576 bytes
Protection: AACS
BD-Java: Yes
Playlist: 00140.MPLS
Size: 227 641 344 bytes
Length: 0:02:44.080
Total Bitrate: 11,10 Mbps
Video: MPEG-4 AVC Video / 10338 kbps / 1080p / 23,976 fps / 16:9 / High Profile 4.1
Audio: English / Dolby Digital Audio / 2.0 / 48 kHz / 192 kbps / DN -4dB / Dolby Surround

********************
PLAYLIST: 00802.MPLS
********************

<--- BEGIN FORUMS PASTE --->

Total Video
Title Codec Length Movie Size Disc Size Bitrate Bitrate Main Audio Track Secondary Audio Track
----- ------ ------- -------------- -------------- ------- ------- ------------------ ---------------------
00802.MPLS AVC 0:02:44 227 641 344 46 055 938 576 11,10 10,34 DD AC3 2.0 192Kbps

DISC INFO:

Disc Title: CREED_II_2018_EUR_BLUEBIRD
Disc Size: 46 055 938 576 bytes
Protection: AACS
BD-Java: Yes
BDInfo: 0.5.8

PLAYLIST REPORT:

Name: 00802.MPLS
Length: 0:02:44.080 (h:m:s.ms)
Size: 227 641 344 bytes
Total Bitrate: 11,10 Mbps

VIDEO:

Codec Bitrate Description
----- ------- -----------
MPEG-4 AVC Video 10338 kbps 1080p / 23,976 fps / 16:9 / High Profile 4.1

AUDIO:

Codec Language Bitrate Description
----- -------- ------- -----------
Dolby Digital Audio English 192 kbps 2.0 / 48 kHz / 192 kbps / DN -4dB / Dolby Surround

FILES:

Name Time In Length Size Total Bitrate
---- ------- ------ ---- -------------
01088.M2TS 0:00:00.000 0:02:44.080 227 641 344 11 099

CHAPTERS:

Number Time In Length Avg Video Rate Max 1-Sec Rate Max 1-Sec Time Max 5-Sec Rate Max 5-Sec Time Max 10Sec Rate Max 10Sec Time Avg Frame Size Max Frame Size Max Frame Time
------ ------- ------ -------------- -------------- -------------- -------------- -------------- -------------- -------------- -------------- -------------- --------------
1 0:00:00.000 0:00:01.001 13 515 kbps 8 722 kbps 00:00:00.000 0 kbps 00:00:00.000 0 kbps 00:00:00.000 67 644 bytes 776 771 bytes 00:00:00.875
2 0:00:01.001 0:00:01.000 9 422 kbps 9 422 kbps 00:00:01.001 0 kbps 00:00:00.000 0 kbps 00:00:00.000 49 123 bytes 803 162 bytes 00:00:01.876
3 0:00:02.002 0:02:42.078 10 324 kbps 15 667 kbps 00:01:58.076 11 506 kbps 00:02:30.984 10 797 kbps 00:01:16.534 53 838 bytes 807 063 bytes 00:00:02.752

STREAM DIAGNOSTICS:

File PID Type Codec Language Seconds Bitrate Bytes Packets
---- --- ---- ----- -------- -------------- -------------- ------------- -----
01088.M2TS 4113 (0x1011) 0x1B AVC 163,955 10 346 212 029 138 1 154 578
01088.M2TS 4352 (0x1100) 0x81 AC3 eng (English) 163,955 191 3 924 480 25 550

<---- END FORUMS PASTE ---->

QUICK SUMMARY:

Disc Title: CREED_II_2018_EUR_BLUEBIRD
Disc Size: 46 055 938 576 bytes
Protection: AACS
BD-Java: Yes
Playlist: 00802.MPLS
Size: 227 641 344 bytes
Length: 0:02:44.080
Total Bitrate: 11,10 Mbps
Video: MPEG-4 AVC Video / 10338 kbps / 1080p / 23,976 fps / 16:9 / High Profile 4.1
Audio: English / Dolby Digital Audio / 2.0 / 48 kHz / 192 kbps / DN -4dB / Dolby Surround

********************
PLAYLIST: 00054.MPLS
********************

<--- BEGIN FORUMS PASTE --->

Total Video
Title Codec Length Movie Size Disc Size Bitrate Bitrate Main Audio Track Secondary Audio Track
----- ------ ------- -------------- -------------- ------- ------- ------------------ ---------------------
00054.MPLS AVC 0:00:50 53 932 032 46 055 938 576 8,63 8,20

DISC INFO:

Disc Title: CREED_II_2018_EUR_BLUEBIRD
Disc Size: 46 055 938 576 bytes
Protection: AACS
BD-Java: Yes
BDInfo: 0.5.8

PLAYLIST REPORT:

Name: 00054.MPLS
Length: 0:00:50.008 (h:m:s.ms)
Size: 53 932 032 bytes
Total Bitrate: 8,63 Mbps

VIDEO:

Codec Bitrate Description
----- ------- -----------
MPEG-4 AVC Video 8197 kbps 1080p / 23,976 fps / 16:9 / High Profile 4.0

FILES:

Name Time In Length Size Total Bitrate
---- ------- ------ ---- -------------
01073.M2TS 0:00:00.000 0:00:50.008 53 932 032 8 628

CHAPTERS:

Number Time In Length Avg Video Rate Max 1-Sec Rate Max 1-Sec Time Max 5-Sec Rate Max 5-Sec Time Max 10Sec Rate Max 10Sec Time Avg Frame Size Max Frame Size Max Frame Time
------ ------- ------ -------------- -------------- -------------- -------------- -------------- -------------- -------------- -------------- -------------- --------------
1 0:00:00.000 0:00:10.010 8 102 kbps 10 556 kbps 00:00:09.009 8 333 kbps 00:00:03.294 7 810 kbps 00:00:00.000 42 065 bytes 397 660 bytes 00:00:10.010
2 0:00:10.010 0:00:10.009 8 643 kbps 11 650 kbps 00:00:17.434 9 266 kbps 00:00:13.304 8 643 kbps 00:00:10.010 45 059 bytes 402 889 bytes 00:00:15.807
3 0:00:20.020 0:00:10.010 7 718 kbps 10 476 kbps 00:00:21.604 8 341 kbps 00:00:23.314 7 718 kbps 00:00:20.020 40 236 bytes 371 724 bytes 00:00:26.693
4 0:00:30.030 0:00:10.009 6 644 kbps 9 370 kbps 00:00:39.039 6 984 kbps 00:00:33.324 6 644 kbps 00:00:30.030 34 637 bytes 386 986 bytes 00:00:40.040
5 0:00:40.040 0:00:09.968 9 885 kbps 13 558 kbps 00:00:41.624 10 936 kbps 00:00:43.334 0 kbps 00:00:00.000 51 754 bytes 401 367 bytes 00:00:40.832

STREAM DIAGNOSTICS:

File PID Type Codec Language Seconds Bitrate Bytes Packets
---- --- ---- ----- -------- -------------- -------------- ------------- -----
01073.M2TS 4113 (0x1011) 0x1B AVC 49,883 8 217 51 238 618 279 200

<---- END FORUMS PASTE ---->

QUICK SUMMARY:

Disc Title: CREED_II_2018_EUR_BLUEBIRD
Disc Size: 46 055 938 576 bytes
Protection: AACS
BD-Java: Yes
Playlist: 00054.MPLS
Size: 53 932 032 bytes
Length: 0:00:50.008
Total Bitrate: 8,63 Mbps
Video: MPEG-4 AVC Video / 8197 kbps / 1080p / 23,976 fps / 16:9 / High Profile 4.0

********************
PLAYLIST: 00049.MPLS
********************

<--- BEGIN FORUMS PASTE --->

Total Video
Title Codec Length Movie Size Disc Size Bitrate Bitrate Main Audio Track Secondary Audio Track
----- ------ ------- -------------- -------------- ------- ------- ------------------ ---------------------
00049.MPLS AVC 0:00:30 5 345 280 46 055 938 576 1,40 1,28

DISC INFO:

Disc Title: CREED_II_2018_EUR_BLUEBIRD
Disc Size: 46 055 938 576 bytes
Protection: AACS
BD-Java: Yes
BDInfo: 0.5.8

PLAYLIST REPORT:

Name: 00049.MPLS
Length: 0:00:30.530 (h:m:s.ms)
Size: 5 345 280 bytes
Total Bitrate: 1,40 Mbps

VIDEO:

Codec Bitrate Description
----- ------- -----------
MPEG-4 AVC Video 1276 kbps 1080p / 23,976 fps / 16:9 / High Profile 4.1

FILES:

Name Time In Length Size Total Bitrate
---- ------- ------ ---- -------------
01086.M2TS 0:00:00.000 0:00:30.530 5 345 280 1 401

CHAPTERS:

Number Time In Length Avg Video Rate Max 1-Sec Rate Max 1-Sec Time Max 5-Sec Rate Max 5-Sec Time Max 10Sec Rate Max 10Sec Time Avg Frame Size Max Frame Size Max Frame Time
------ ------- ------ -------------- -------------- -------------- -------------- -------------- -------------- -------------- -------------- -------------- --------------
1 0:00:00.000 0:00:30.530 1 276 kbps 2 539 kbps 00:00:27.444 1 737 kbps 00:00:20.687 1 527 kbps 00:00:19.936 6 662 bytes 145 001 bytes 00:00:28.403

STREAM DIAGNOSTICS:

File PID Type Codec Language Seconds Bitrate Bytes Packets
---- --- ---- ----- -------- -------------- -------------- ------------- -----
01086.M2TS 4113 (0x1011) 0x1B AVC 30,364 1 283 4 870 212 26 811

<---- END FORUMS PASTE ---->

QUICK SUMMARY:

Disc Title: CREED_II_2018_EUR_BLUEBIRD
Disc Size: 46 055 938 576 bytes
Protection: AACS
BD-Java: Yes
Playlist: 00049.MPLS
Size: 5 345 280 bytes
Length: 0:00:30.530
Total Bitrate: 1,40 Mbps
Video: MPEG-4 AVC Video / 1276 kbps / 1080p / 23,976 fps / 16:9 / High Profile 4.1

********************
PLAYLIST: 00154.MPLS
********************

<--- BEGIN FORUMS PASTE --->

Total Video
Title Codec Length Movie Size Disc Size Bitrate Bitrate Main Audio Track Secondary Audio Track
----- ------ ------- -------------- -------------- ------- ------- ------------------ ---------------------
00154.MPLS AVC 0:00:29 35 948 544 46 055 938 576 9,59 9,12

DISC INFO:

Disc Title: CREED_II_2018_EUR_BLUEBIRD
Disc Size: 46 055 938 576 bytes
Protection: AACS
BD-Java: Yes
BDInfo: 0.5.8

PLAYLIST REPORT:

Name: 00154.MPLS
Length: 0:00:29.988 (h:m:s.ms)
Size: 35 948 544 bytes
Total Bitrate: 9,59 Mbps

VIDEO:

Codec Bitrate Description
----- ------- -----------
MPEG-4 AVC Video 9120 kbps 1080p / 23,976 fps / 16:9 / High Profile 4.0

FILES:

Name Time In Length Size Total Bitrate
---- ------- ------ ---- -------------
01071.M2TS 0:00:00.000 0:00:29.988 35 948 544 9 590

CHAPTERS:

Number Time In Length Avg Video Rate Max 1-Sec Rate Max 1-Sec Time Max 5-Sec Rate Max 5-Sec Time Max 10Sec Rate Max 10Sec Time Avg Frame Size Max Frame Size Max Frame Time
------ ------- ------ -------------- -------------- -------------- -------------- -------------- -------------- -------------- -------------- -------------- --------------
1 0:00:00.000 0:00:10.010 8 064 kbps 10 436 kbps 00:00:01.584 8 333 kbps 00:00:03.294 7 772 kbps 00:00:00.000 41 868 bytes 365 591 bytes 00:00:07.465
2 0:00:10.010 0:00:10.009 9 049 kbps 12 965 kbps 00:00:19.018 9 897 kbps 00:00:13.304 9 049 kbps 00:00:10.010 47 176 bytes 409 113 bytes 00:00:20.020
3 0:00:20.020 0:00:09.968 10 251 kbps 13 880 kbps 00:00:21.604 11 339 kbps 00:00:23.314 0 kbps 00:00:00.000 53 667 bytes 433 042 bytes 00:00:20.812

STREAM DIAGNOSTICS:

File PID Type Codec Language Seconds Bitrate Bytes Packets
---- --- ---- ----- -------- -------------- -------------- ------------- -----
01071.M2TS 4113 (0x1011) 0x1B AVC 29,863 9 158 34 185 297 186 205

<---- END FORUMS PASTE ---->

QUICK SUMMARY:

Disc Title: CREED_II_2018_EUR_BLUEBIRD
Disc Size: 46 055 938 576 bytes
Protection: AACS
BD-Java: Yes
Playlist: 00154.MPLS
Size: 35 948 544 bytes
Length: 0:00:29.988
Total Bitrate: 9,59 Mbps
Video: MPEG-4 AVC Video / 9120 kbps / 1080p / 23,976 fps / 16:9 / High Profile 4.0

********************
PLAYLIST: 00052.MPLS
********************

<--- BEGIN FORUMS PASTE --->

Total Video
Title Codec Length Movie Size Disc Size Bitrate Bitrate Main Audio Track Secondary Audio Track
----- ------ ------- -------------- -------------- ------- ------- ------------------ ---------------------
00052.MPLS AVC 0:00:23 29 712 384 46 055 938 576 10,23 9,74

DISC INFO:

Disc Title: CREED_II_2018_EUR_BLUEBIRD
Disc Size: 46 055 938 576 bytes
Protection: AACS
BD-Java: Yes
BDInfo: 0.5.8

PLAYLIST REPORT:

Name: 00052.MPLS
Length: 0:00:23.231 (h:m:s.ms)
Size: 29 712 384 bytes
Total Bitrate: 10,23 Mbps

VIDEO:

Codec Bitrate Description
----- ------- -----------
MPEG-4 AVC Video 9736 kbps 1080p / 23,976 fps / 16:9 / High Profile 4.0

FILES:

Name Time In Length Size Total Bitrate
---- ------- ------ ---- -------------
01070.M2TS 0:00:00.000 0:00:23.231 29 712 384 10 232

CHAPTERS:

Number Time In Length Avg Video Rate Max 1-Sec Rate Max 1-Sec Time Max 5-Sec Rate Max 5-Sec Time Max 10Sec Rate Max 10Sec Time Avg Frame Size Max Frame Size Max Frame Time
------ ------- ------ -------------- -------------- -------------- -------------- -------------- -------------- -------------- -------------- -------------- --------------
1 0:00:00.000 0:00:23.231 9 736 kbps 28 022 kbps 00:00:11.594 13 408 kbps 00:00:08.091 11 401 kbps 00:00:12.137 50 851 bytes 482 078 bytes 00:00:17.767

STREAM DIAGNOSTICS:

File PID Type Codec Language Seconds Bitrate Bytes Packets
---- --- ---- ----- -------- -------------- -------------- ------------- -----
01070.M2TS 4113 (0x1011) 0x1B AVC 23,148 9 771 28 273 304 153 973

<---- END FORUMS PASTE ---->

QUICK SUMMARY:

Disc Title: CREED_II_2018_EUR_BLUEBIRD
Disc Size: 46 055 938 576 bytes
Protection: AACS
BD-Java: Yes
Playlist: 00052.MPLS
Size: 29 712 384 bytes
Length: 0:00:23.231
Total Bitrate: 10,23 Mbps
Video: MPEG-4 AVC Video / 9736 kbps / 1080p / 23,976 fps / 16:9 / High Profile 4.0
pb.wtf



Скачать Крид 2 через торрент https://a.radikal.ru/a34/1903/95/cd014e0b59f6.png Скачать фильм Крид 2 через торрент бесплантно в хорошем качестве Описание: Жизнь Адониса Крида превратилась в череду компромиссов. Пока он разрывается между долгом и тренировками к следующему большому ... 10 10 1
Торрент: Зарегистрирован [2019-03-16 02:46] · скачан: 37 раз
Статус: √ проверено
Размер: 42.89 GB
Как cкачать? Как скачать Крид 2 через торрент | qTorrent

% Раздел Тема Автор DL S | L
Фильмы (HD 720p, 1080p) (48-60 fps) [ 4.13 GB ] Крид 2 / Creed II [2018 BDRip 720p / 60 FPS ] от R.G. HD-Films slaventi-69 Скачать
1 | 1
Фильмы (HD 720p, 1080p) (48-60 fps) [ 17.46 GB ] Крид 2 / Creed II [2018 BDRip 1080p 60 fps] [] sheker187 Скачать
1 | 0
Фильмы 2018 [DVDrip, WEB-DLRip, HDrip] (DUB, MVO) [ 2.18 GB ] Крид 2 / Creed II [2018 BDRip] - [] Twi7ter Скачать
1 | 0
Фильмы 2018 [DVDrip, WEB-DLRip, HDrip] (DUB, MVO) [ 1.46 GB ] Крид 2 / Creed II [2018 BDRip] DUB [] Skandar2019 Скачать
2 | 0
Ultra HD (UHD: 2K, 4K, 8K) — видео сверхвысокой чёткости [ 53.03 GB ] Крид 2 / Creed II [2018 UHD Blu-ray 2160p] DUB [] [Dolby Vision] sheker187 Скачать
1 | 0
Фильмы 2018 [DVDrip, WEB-DLRip, HDrip] (DUB, MVO) [ 1.46 GB ] Крид 2 / Creed II [2018 BDRip] - [] Twi7ter Скачать
1 | 0
# Фильмы (мультфильмы) cо спонсором показа (Новинки AVI/MKV) [ 11.82 GB ] Крид 2 / Creed II [2018 BDRip 1080p] DUB [Line] bober100 Скачать
1 | 0

28-11-2019 20:33  

Отключить всю рекламу на сайте

    Дорогой пользователь! Огромная просьба, поблагодарите релизера, оцените раздачу и оставьте свои комментарий, если Вы скачали Крид 2 через торрент бесплатно! Внесите свою лепту в развитие PiratBit!
    Комментировать посты могут только пользователи прошедшие не сложную регистрацию
    Показать сообщения:    

    Крид 2 через торрент
    Скачать бесплатно Крид 2
    Крид 2 скачать торрент
    Крид 2 смотреть онлайн
    Cкачать фильм Крид 2 бесплатно
    Крид 2 скачать торрент в хорошем качестве
    Крид 2 смотреть онлайн бесплатно в хорошем качестве


    Вы не можете начинать темы
    Вы не можете отвечать на сообщения
    Вы не можете редактировать свои сообщения
    Вы не можете удалять свои сообщения
    Вы не можете голосовать в опросах
    Вы не можете прикреплять файлы к сообщениям
    Вы можете скачивать файлы