Ссылка на приватное зеркало всего за 1$. Внимание количество ограничено!!!

OK

1+1

iTunes

мы

OK

1

WEB-DLRip

Джокер

Пифагор

Ведьмак / The Witcher сериал

Лицензия

ПШазам

ОК

Оно 2

iTunes

30
pack

Вам бонус

ВАЖНО

!!Акция!!

Alien_RageХит недели

RePack

Resident Evil 21

ИГРА 18+

pack

RePack

jed

RePack

fifa19

RePack

Assassins Creed: Odyssey

RePack

NEED FOR SPEED™ PAYBACK

4 сезон

9 сезон

Бесстыжие 9 сезон

Все сериалы

все сериалы на PB.wtf

RePack

FAR CRY 5
  

Большое убийство / Big Kill (Скотт Мартин) [2018 г., Боевик, вестерн, HDRip, Любительский (многоголосый) (Синема УС)] pb.wtf

Большое убийство через торрент pb.wtf

Размер: 2.01 GB | Добавлен: 10 мес. назад | Торрент скачан:147 раз
Скачать  

16-03-2019 05:00 Большое убийство Скачать торрент  

Большое убийство / Big Kill
Год выпуска: 2018
Страна: США
Жанр: Боевик, вестерн
Продолжительность: 02:06:08
Перевод: Любительский (многоголосый) (Синема УС)
Субтитры: Отсутствуют

Режиссер: Скотт Мартин

rating

В ролях: Джейсон Патрик, Лу Даймонд Филлипс, Кристоф Сандерс, Скотт Мартин, Клинт Гленн, К.С. Клайд, Стефани Беран, Элизабет МакЛафлин, Дэнни Трехо, Майкл Паре

Описание: Простого парня из Филадельфии, двух незадачливых картёжников в бегах и проповедника-убийцу ждёт встреча с судьбой в некогда процветающем городе, теперь пришедшем в упадок, под названием Бигкилл.

Доп. информация: Присутствуют вставки текстовой рекламы

Качество: HDRip
Формат: AVI
Видео кодек: XviD
Аудио кодек: AC3
Видео: XviD, 720x304, ~1828 Kbps
Аудио#1: AC-3, 2 ch, 448 Kbps
скриншот   скриншот   скриншот   скриншот  

Общее
Полное имя : C:\_\Большое убийство\Big Kill 2018 HDRip.avi
Формат : AVI
Формат/Информация : Audio Video Interleave
Профиль формата : OpenDML
Размер файла : 2,01 Гбайт
Продолжительность : 2 ч. 6 м.
Общий поток : 2286 Кбит/сек

Видео
Идентификатор : 0
Формат : MPEG-4 Visual
Профиль формата : Advanced Simple@L5
Параметр BVOP формата : 2
Параметр QPel формата : Нет
Параметр GMC формата : Без точки перехода
Параметр матрицы формата : Default (H.263)
Идентификатор кодека : XVID
Идентификатор кодека/Подсказка : XviD
Продолжительность : 2 ч. 6 м.
Битрейт : 1828 Кбит/сек
Ширина : 720 пикселей
Высота : 304 пикселя
Соотношение сторон : 2,35:1
Частота кадров : 23,976 (24000/1001) кадра/сек
Цветовое пространство : YUV
Субдискретизация насыщенности : 4:2:0
Битовая глубина : 4 бит
Тип развёртки : Прогрессивная
Метод сжатия : С потерями
Бит/(Пиксели*Кадры) : 0.348
Размер потока : 1,61 Гбайт (80%)
Библиотека кодирования : XviD 1.2.1 (UTC 2008-12-04)

Аудио
Идентификатор : 1
Формат : AC-3
Формат/Информация : Audio Coding 3
Расширение режима : CM (complete main)
Параметр Endianness формата : Big
Идентификатор кодека : 2000
Продолжительность : 2 ч. 6 м.
Вид битрейта : Постоянный
Битрейт : 448 Кбит/сек
Каналы : 2 канала
Расположение каналов : Front: L R
Частота : 48,0 КГц
Частота кадров : 31,250 кадров/сек (1536 spf)
Метод сжатия : С потерями
Размер потока : 404 Мбайт (20%)
Выравнивание : Соединение по промежуткам
Продолжительность промежутка : 32 мс. (0,77 видеокадр)

pb.wtf



Скачать Большое убийство через торрент http://pic1.kartinco.top/images/12/sjozr.jpg Скачать фильм Большое убийство через торрент бесплантно в хорошем качестве Описание: Простого парня из Филадельфии, двух незадачливых картёжников в бегах и проповедника-убийцу ждёт встреча с судьбой в некогда ... 9.5 10 6
Info! Золотая раздача, скачанное не засчитывается.
Торрент: Зарегистрирован [2019-03-16 05:00] · скачан: 147 раз
Статус: √ проверено
Размер: 2.01 GB
Как cкачать? Как скачать Большое убийство через торрент | qTorrent

28-11-2019 20:33  

Отключить всю рекламу на сайте

21-03-2019 19:03 Большое убийство Скачать торрент  

Не плохой фильм оказался.pb.wtf



    Дорогой пользователь! Огромная просьба, поблагодарите релизера, оцените раздачу и оставьте свои комментарий, если Вы скачали Большое убийство через торрент бесплатно! Внесите свою лепту в развитие PiratBit!
    Комментировать посты могут только пользователи прошедшие не сложную регистрацию
    Показать сообщения:    

    Большое убийство через торрент
    Скачать бесплатно Большое убийство
    Большое убийство скачать торрент
    Большое убийство смотреть онлайн
    Cкачать фильм Большое убийство бесплатно
    Большое убийство скачать торрент в хорошем качестве
    Большое убийство смотреть онлайн бесплатно в хорошем качестве


    Вы не можете начинать темы
    Вы не можете отвечать на сообщения
    Вы не можете редактировать свои сообщения
    Вы не можете удалять свои сообщения
    Вы не можете голосовать в опросах
    Вы не можете прикреплять файлы к сообщениям
    Вы можете скачивать файлы