Ссылка на приватное зеркало нашего сайта всего за 1$. Внимание количество ограничено!!!

2 сезон

iTunes

1 сезон

1

2 сезон

2 сезон

iTunes

1 сезон

RePack

30

Ultimate

ВАЖНО

ИГРА 18+

pack

RePack

MK11
pack

Забери бонус

RePack

jed

!!Акция!!

Alien_Rage

RePack

fifa19

RePack

Assassins Creed: Odyssey

RePack

NEED FOR SPEED™ PAYBACK

4 сезон

9 сезон

Бесстыжие 9 сезон

Все сериалы

все сериалы на PB.wtf

RePack

FAR CRY 5
  

Миллиарды / Billions / Сезон 03 / Серии 01-12 из 12 (Джеймс Фоули, Нил Бёргер) [2018, драма, WEB-DLRip] [MVO] (NewStudio) pb.wtf

Миллиарды через торрент pb.wtf

Раздают: 1 [ 0 KB/s ]
Размер: 8.48 GB | Добавлен: 2 года 5 мес. назад | Торрент скачан:129 раз
Скачать  

02-04-2018 18:22 Миллиарды Скачать торрент  

Миллиарды | Billions Год выпуска: 2018
Страна: США
Жанр: драма
Продолжительность: ~ 00:45:00
Перевод: Профессиональный (многоголосый закадровый) | NewStudio

Режиссёр: Джеймс Фоули, Нил Бёргер

В ролях: Дэмиэн Льюис, Пол Джаматти, Мэгги Сифф, Малин Акерман, Тоби Леонард Мур, Дэвид Костабайл, Дэниэл К. Исаак, Фрэнк Хартс и др.

Описание: В мире много телесериалов, которые рассказывают о богатеях. А вы когда - нибудь смотрели сериал об их противостоянии. О конфликте двух довольно известных личностях расскажет телесериал «Миллиардеры». Этот фильм снят по сценарию Дэвида Левина и Брайна Коппельмана. Именно они написали сценарий к таким известным фильмам, как «13 друзей Оушена», «Шулера», «Девушка по вызову». Сюжет очень необычен. Здесь столкнутся интересы двух влиятельных людей. Один - юрист Чак Роадса. Он прокурор, известный своей принципиальностью. А второй Бобби Аксельрод – финансист. Он король среди себе подобных. Риск для него обычное дело, да и удача ему всегда улыбается.



Качество: WEB-DLRip
Формат: AVI
Видео: XviD, ~ 1400 kbps, 720x400 (16:9), 23.976 fps
Аудио 1: MP3, 48,0 КГц, 2 ch, 128 kbps - Rus
Аудио 2: MP3, 48,0 КГц, 2 ch, 128 kbps - Eng
Субтитры: русские (форсированные, на надписи)
General
Complete name : E:\Миллиарды (сезон 3) Billions (2018) WEBRip - NewStudio\Billions.S03E01.WEBRip.Rus.Eng.DV.NewStudio.avi
Format : AVI
Format/Info : Audio Video Interleave
File size : 749 MiB
Duration : 59 min 2 s
Overall bit rate : 1 774 kb/s
Movie name : Billions.S03E01.WEBRip.Rus.Eng.DV.NewStudio / NNM-Club
Writing application : VirtualDubModRus 1.5.10.2 (build 2542/release)
Writing library : VirtualDubMod build 2542/release

Video
ID : 0
Format : MPEG-4 Visual
Format profile : Advanced Simple@L5
Format settings : BVOP2
Format settings, BVOP : 2
Format settings, QPel : No
Format settings, GMC : No warppoints
Format settings, Matrix : Default (H.263)
Codec ID : XVID
Codec ID/Hint : XviD
Duration : 59 min 2 s
Bit rate : 1 437 kb/s
Width : 720 pixels
Height : 400 pixels
Display aspect ratio : 16:9
Frame rate : 23.976 (24000/1001) FPS
Color space : YUV
Chroma subsampling : 4:2:0
Bit depth : 8 bits
Scan type : Progressive
Compression mode : Lossy
Bits/(Pixel*Frame) : 0.208
Stream size : 607 MiB (81%)
Title : Rip by DriverV / NNM-Club
Writing library : XviD 67

Audio #1
ID : 1
Format : MPEG Audio
Format version : Version 1
Format profile : Layer 3
Format settings : Joint stereo / MS Stereo
Mode : Joint stereo
Mode extension : MS Stereo
Codec ID : 55
Codec ID/Hint : MP3
Duration : 59 min 2 s
Bit rate mode : Constant
Bit rate : 128 kb/s
Channel(s) : 2 channels
Sampling rate : 48.0 kHz
Compression mode : Lossy
Stream size : 54.1 MiB (7%)
Alignment : Aligned on interleaves

Audio #2
ID : 2
Format : MPEG Audio
Format version : Version 1
Format profile : Layer 3
Format settings : Joint stereo / MS Stereo
Mode : Joint stereo
Mode extension : MS Stereo
Codec ID : 55
Codec ID/Hint : MP3
Duration : 59 min 2 s
Bit rate mode : Constant
Bit rate : 128 kb/s
Channel(s) : 2 channels
Sampling rate : 48.0 kHz
Compression mode : Lossy
Stream size : 54.1 MiB (7%)
Alignment : Aligned on interleaves

скриншот  скриншот  скриншот  
Когда раздача ведётся путём добавления новых серий, при каждом добавлении создётся новый торрент. Чтобы начать докачку новой серии, пользователям необходимо сделать следующее:
(1) остановить скачивание,
(2) удалить старый торрент у себя из клиента (старые серии удалять не надо),
(3) скачать новый торрент и запустить его у себя в клиенте вместо старого, при этом указать клиенту путь в старую папку, куда и должно происходить скачивание новых серий.
Ваш клиент при этом должен произвести хеширование (проверку) старой папки (если не производит сам - помогите ему сделать это), и будет докачивать только те серии, которых у вас ещё нет. Старые серии при этом не удаляются, а продолжают раздаваться!
Eсли вы уже удалили старые серии, то предотвратить повторную закачку старых серий можно, отжав галочку в соответсвующих местах при запуске нового торрента. По возможности, желательно не удалять старые серии как можно дольше, чтобы релизёр не столько продолжал раздавать старые серии, а смог сконцентрироваться на новых.
pb.wtf



Скачать Миллиарды через торрент http://i101.fastpic.ru/big/2018/0325/f3/15ea363aa7c8e567cd7d0368c51d13f3.png Скачать фильм Миллиарды через торрент бесплантно в хорошем качестве Описание: В мире много телесериалов, которые рассказывают о богатеях. А вы когда - нибудь смотрели сериал об их противостоянии. О конфликте ... 10 10 2
Info! Золотая раздача, скачанное не засчитывается.
Торрент: Зарегистрирован [2018-06-20 17:38] · скачан: 129 раз
Статус: √ проверено
Размер: 8.48 GB
Как cкачать? Как скачать Миллиарды через торрент | qTorrent

% Раздел Тема Автор DL S | L
Зарубежные сериалы [ 31.02 GB ] Миллиарды / Billions / Сезон 03 / Серии 01-12 из 12 [2018 WEB-DL 1080p] [MVO] killermax2013 Скачать
1 | 0
Зарубежные сериалы [ 4.62 GB ] Миллиарды / Billions / Сезон 03 / Серии 01-09 из 12 [2018 WEB-DLRip] [DVO] killermax2013 Скачать
1 | 0
Зарубежные сериалы [ 7.86 GB ] Миллиарды / Billions / Сезон 03 / Серии 01-12 из 12 [2018 WEBRip] [MVO] killermax2013 Скачать
1 | 0


Последний раз редактировалось: killermax2013 (2018-06-20 17:38), всего редактировалось 3 раз(а)

28-11-2019 20:33  

Отключить всю рекламу на сайте

29-04-2018 19:36 Миллиарды Скачать торрент  

+4-5 pb.wtf



    Дорогой пользователь! Огромная просьба, поблагодарите релизера, оцените раздачу и оставьте свои комментарий, если Вы скачали Миллиарды через торрент бесплатно! Внесите свою лепту в развитие PiratBit!
    Комментировать посты могут только пользователи прошедшие не сложную регистрацию
    Показать сообщения:    

    Миллиарды через торрент
    Скачать бесплатно Миллиарды
    Миллиарды скачать торрент
    Миллиарды смотреть онлайн
    Cкачать фильм Миллиарды бесплатно
    Миллиарды скачать торрент в хорошем качестве
    Миллиарды смотреть онлайн бесплатно в хорошем качестве


    Вы не можете начинать темы
    Вы не можете отвечать на сообщения
    Вы не можете редактировать свои сообщения
    Вы не можете удалять свои сообщения
    Вы не можете голосовать в опросах
    Вы не можете прикреплять файлы к сообщениям
    Вы можете скачивать файлы