Ссылка на приватное зеркало нашего сайта всего за 1$. Внимание количество ограничено!!!

2 сезон

iTunes

1 сезон

1

2 сезон

2 сезон

iTunes

1 сезон

RePack

30

Ultimate

ВАЖНО

ИГРА 18+

pack

RePack

MK11
pack

Забери бонус

RePack

jed

!!Акция!!

Alien_Rage

RePack

fifa19

RePack

Assassins Creed: Odyssey

RePack

NEED FOR SPEED™ PAYBACK

4 сезон

9 сезон

Бесстыжие 9 сезон

Все сериалы

все сериалы на PB.wtf

RePack

FAR CRY 5
  

Миллиарды / Billions / Сезон: 3 / Серии: 1-12 из 12 (Джеймс Фоули, Нил Бёргер, Скотт Хорнбэкер) [2018, драма, WEB-DL 720p] MVO [Амедиа] pb.wtf

Миллиарды через торрент pb.wtf

Размер: 12.24 GB | Добавлен: 2 года 5 мес. назад | Торрент скачан:92 раза
Скачать  

26-03-2018 13:46 Миллиарды Скачать торрент  

Миллиарды / BillionsГод выпуска: 2018
Страна: США
Жанр: драма
Продолжительность: ~ 00:58:00
Перевод: Профессиональный многоголосый | Amedia
Субтитры: английские, русские

Режиссер: Джеймс Фоули, Нил Бёргер, Скотт Хорнбэкер

rating

В ролях:

Дэмиэн Льюис, Пол Джаматти, Малин Акерман, Дэвид Костабайл, Дэниэл К. Исаак, Тоби Леонард Мур, Мэгги Сифф, Фрэнк Хартс

Описание:

Чак Роудс - выходец из богатой семьи, амбициозный и влиятельный прокурор из Манхеттена. Есть у Чака одна особенность - потребность время от времени испытывать боль, в реализации этой необычной наклонности ему всегда готова помочь его жена Венди. Роудс мечтает занять более высокий пост и потому, с маниакальной решимостью, гоняется за воротилами с Уолл-стрит. Однако скоро все изменится, когда Чак бросит вызов боссу своей жены, миллиардеру Бобби Аксельроду. Последний - весьма достойный соперник. Выходец из народа, сделавший себя сам, управляющий крупнейшим хедж-фондом не остановится ни перед чем, чтобы заработать пару лишних миллионов. Его методы собирать информацию и шантажировать ею просто завораживают. Так что битва обещает быть жаркой и жестокой.

Качество: WEB-DL 720p
Формат: MKV

Видео: MPEG-4 AVC, ~ 4000 Кбит/с, 1280x720
Аудио#1: Русский (AC3, 2 ch, 192 Кбит/с)
Аудио#2: английский (EAC3, 6 ch, 640 Кбит/с)
скриншот  скриншот  скриншот  

Общее
Уникальный идентификатор : 31832131682882494022360880451896013030 (0x17F2A5436E7B618FC9D8B16562FCF0E6)
Полное имя : D:\Billions.2016.S03.AMZN.WEB-DL.720P\Billions.S03E01.720p.AMZN.WEB-DL.H264.RUS.SRT.mkv
Формат : Matroska
Версия формата : Version 4 / Version 2
Размер файла : 1,03 Гбайт
Продолжительность : 59 м. 2 с.
Режим общего битрейта : Переменный
Общий поток : 2502 Кбит/сек
Название фильма : Billions, Season 3
Трек/Положение : 1
Трек/Всего : 10
Описание : Chuck receives a mandate from a new boss. Axe braves a difficult choice following his recent indictment. Taylor generates a monster strategy. Lara threatens to pull her money from Axe Capital. Sacker strives to prove herself as Chief of Crim.
Дата выпуска : 2018-03-26
Дата кодирования : UTC 2018-04-30 05:41:28
Программа кодирования : mkvmerge v22.0.0 ('At The End Of The World') 64-bit
Библиотека кодирования : libebml v1.3.5 + libmatroska v1.4.8

Видео
Идентификатор : 1
Формат : AVC
Формат/Информация : Advanced Video Codec
Профиль формата : High@L3.1
Параметр CABAC формата : Да
Параметр RefFrames формата : 5 кадров
Идентификатор кодека : V_MPEG4/ISO/AVC
Продолжительность : 59 м. 2 с.
Вид битрейта : Переменный
Битрейт : 1667 Кбит/сек
Максимальный битрейт : 4500 Кбит/сек
Ширина : 1280 пикселей
Высота : 720 пикселей
Соотношение сторон : 16:9
Режим частоты кадров : Постоянный
Частота кадров : 23,976 (24000/1001) кадра/сек
Цветовое пространство : YUV
Субдискретизация насыщенности : 4:2:0
Битовая глубина : 8 бит
Тип развёртки : Прогрессивная
Бит/(Пиксели*Кадры) : 0.075
Размер потока : 704 Мбайт (67%)
Язык : English
Default : Да
Forced : Нет
Цветовой диапазон : Limited
Основные цвета : BT.709
Характеристики трансфера : BT.709
Коэффициенты матрицы : BT.709

Аудио #1
Идентификатор : 2
Формат : AC-3
Формат/Информация : Audio Coding 3
Расширение режима : CM (complete main)
Параметр Endianness формата : Big
Идентификатор кодека : A_AC3
Продолжительность : 59 м. 2 с.
Вид битрейта : Постоянный
Битрейт : 192 Кбит/сек
Каналы : 2 канала
Расположение каналов : Front: L R
Частота : 48,0 КГц
Частота кадров : 31,250 кадров/сек (1536 spf)
Метод сжатия : С потерями
Размер потока : 81,1 Мбайт (8%)
Заголовок : Amedia
Язык : Russian
Default : Да
Forced : Нет

Аудио #2
Идентификатор : 3
Формат : E-AC-3
Формат/Информация : Audio Coding 3
Параметр Endianness формата : Big
Идентификатор кодека : A_EAC3
Продолжительность : 59 м. 2 с.
Вид битрейта : Постоянный
Битрейт : 640 Кбит/сек
Каналы : 6 каналов
Расположение каналов : Front: L C R, Side: L R, LFE
Частота : 48,0 КГц
Частота кадров : 187,500 кадров/сек (256 spf)
Метод сжатия : С потерями
Размер потока : 270 Мбайт (26%)
Язык : English
Default : Нет
Forced : Нет

Текст #1
Идентификатор : 4
Формат : UTF-8
Идентификатор кодека : S_TEXT/UTF8
Идентификатор кодека/Информация : UTF-8 Plain Text
Продолжительность : 56 м. 48 с.
Битрейт : 136 бит/сек
ElementCount : 1032
Размер потока : 57,0 Кбайт (0%)
Заголовок : Amedia
Язык : Russian
Default : Нет
Forced : Нет

Текст #2
Идентификатор : 5
Формат : UTF-8
Идентификатор кодека : S_TEXT/UTF8
Идентификатор кодека/Информация : UTF-8 Plain Text
Продолжительность : 57 м. 48 с.
Битрейт : 94 бит/сек
ElementCount : 1241
Размер потока : 40,0 Кбайт (0%)
Язык : English
Default : Нет
Forced : Нет

Текст #3
Идентификатор : 6
Формат : UTF-8
Идентификатор кодека : S_TEXT/UTF8
Идентификатор кодека/Информация : UTF-8 Plain Text
Продолжительность : 57 м. 48 с.
Битрейт : 96 бит/сек
ElementCount : 1282
Размер потока : 40,8 Кбайт (0%)
Заголовок : SDH
Язык : English
Default : Нет
Forced : Нет

Меню
00:00:00.000 : en:Studio Logo
00:00:04.000 : en:Previously On
00:01:59.000 : en:Studio Logo
00:02:19.000 : en:Chuck talks with the General
00:05:54.000 : en:Bill wants the funds to flow
00:08:01.000 : en:Taylor tells everybody about the idea dinner
00:12:33.000 : en:Oliver starts a conversation and Chuck gets uncomfortable with it
00:17:56.000 : en:Lara wants to check all the records
00:20:22.000 : en:Bobby lets Lara to check all the records
00:24:18.000 : en:Good to be back home
00:25:14.000 : en:Oliver promises to help Chuck
00:28:38.000 : en:Oliver politely refuses to reveal about the tipster
00:30:26.000 : en:Chuck asks a favor from Ira
00:34:33.000 : en:Wags rejects the suggestions from employees
00:35:37.000 : en:Mike asks Taylor if she is shopping for jobs
00:37:59.000 : en:Sr. Chuck denies an offer from Black Jack
00:40:51.000 : en:Bryan expects something in return
00:42:49.000 : en:Oliver asks Bryan to position themselves to win over Bobby
00:44:21.000 : en:Wendy gives an advice to Bobby
00:46:53.000 : en:Oliver tells a good news to Chuck
00:48:10.000 : en:Lara advises Bobby not to lose his money
00:49:21.000 : en:Taylor comes up with an idea
00:51:33.000 : en:Wendy tells the truth to Chuck
00:55:32.000 : en:Surprise guest at the meeting
00:57:28.000 : en:End Credits
00:57:56.000 : en:Next On

Когда раздача ведётся путём добавления новых серий, при каждом добавлении создётся новый торрент. Чтобы начать докачку новой серии, пользователям необходимо сделать следующее:
(1) остановить скачивание,
(2) удалить старый торрент у себя из клиента (старые серии удалять не надо),
(3) скачать новый торрент и запустить его у себя в клиенте вместо старого, при этом указать клиенту путь в старую папку, куда и должно происходить скачивание новых серий.
Ваш клиент при этом должен произвести хеширование (проверку) старой папки (если не производит сам - помогите ему сделать это), и будет докачивать только те серии, которых у вас ещё нет. Старые серии при этом не удаляются, а продолжают раздаваться!
Eсли вы уже удалили старые серии, то предотвратить повторную закачку старых серий можно, отжав галочку в соответсвующих местах при запуске нового торрента. По возможности, желательно не удалять старые серии как можно дольше, чтобы релизёр не столько продолжал раздавать старые серии, а смог сконцентрироваться на новых.
pb.wtf



Скачать Миллиарды через торрент http://img10.lostpic.net/2016/01/16/61e0c9c7e9c8df297b77e5ef61d5be54.png Скачать фильм Миллиарды через торрент бесплантно в хорошем качестве Описание: Чак Роудс - выходец из богатой семьи, амбициозный и влиятельный прокурор из Манхеттена. Есть у Чака одна особенность - ... 10 10 13
Торрент: Зарегистрирован [2018-06-11 09:11] · скачан: 92 раз
Статус: √ проверено
Размер: 12.24 GB
Как cкачать? Как скачать Миллиарды через торрент | qTorrent

% Раздел Тема Автор DL S | L
Зарубежные сериалы [ 33.62 GB ] Миллиарды / Billions / Сезон: 3 / Серии: 1-12 из 12 [2018 WEB-DL 1080p] MVO [TVShows] bober100 Скачать
1 | 0
Зарубежные сериалы [ 8.65 GB ] Миллиарды / Billions / Сезон: 3 / Серии: 1-12 из 12 [2018 WEB-DLRip] MVO [Амедиа] bober100 Скачать
1 | 0


Последний раз редактировалось: bober100 (2018-06-11 09:11), всего редактировалось 8 раз(а)

28-11-2019 20:33  

Отключить всю рекламу на сайте

26-03-2018 19:28 Миллиарды Скачать торрент  

опа, продолжение) раздающему спасибо)pb.wtf



22-05-2018 14:44 Миллиарды Скачать торрент  

Классный сериал! спасибо!pb.wtf



    Дорогой пользователь! Огромная просьба, поблагодарите релизера, оцените раздачу и оставьте свои комментарий, если Вы скачали Миллиарды через торрент бесплатно! Внесите свою лепту в развитие PiratBit!
    Комментировать посты могут только пользователи прошедшие не сложную регистрацию
    Показать сообщения:    

    Миллиарды через торрент
    Скачать бесплатно Миллиарды
    Миллиарды скачать торрент
    Миллиарды смотреть онлайн
    Cкачать фильм Миллиарды бесплатно
    Миллиарды скачать торрент в хорошем качестве
    Миллиарды смотреть онлайн бесплатно в хорошем качестве


    Вы не можете начинать темы
    Вы не можете отвечать на сообщения
    Вы не можете редактировать свои сообщения
    Вы не можете удалять свои сообщения
    Вы не можете голосовать в опросах
    Вы не можете прикреплять файлы к сообщениям
    Вы можете скачивать файлы