Ссылка на приватное зеркало всего за 1$. Внимание количество ограничено!!!

OK

1+1

iTunes

мы

OK

1

WEB-DLRip

Джокер

Пифагор

Ведьмак / The Witcher сериал

Лицензия

ПШазам

ОК

Оно 2

iTunes

30
pack

Вам бонус

ВАЖНО

!!Акция!!

Alien_RageХит недели

RePack

Resident Evil 21

ИГРА 18+

pack

RePack

jed

RePack

fifa19

RePack

Assassins Creed: Odyssey

RePack

NEED FOR SPEED™ PAYBACK

4 сезон

9 сезон

Бесстыжие 9 сезон

Все сериалы

все сериалы на PB.wtf

RePack

FAR CRY 5
  

Крид 2 / Creed II (Стивен Кейпл мл.) [2018, драма, спорт, BDRip 1080p-HEVC] DUB [Лицензия] + MVO [HDRezka Studio] pb.wtf

Крид 2 через торрент pb.wtf

Раздают: 3 [ 0 KB/s ]
Размер: 7.51 GB | Добавлен: 10 мес. назад | Торрент скачан:479 раз
Скачать  

16-03-2019 08:20 Крид 2 Скачать торрент  

Крид 2 / Creed II««The Legend Becomes Stronger»»

Год выпуска: 2018
Страна: США
Жанр: драма, спорт
Продолжительность: 02:10:00
Перевод: Дублированный, профессиональный многоголосый
Субтитры: Русские (Forced), Английские (Full)
Режиссер: Стивен Кейпл мл.
В ролях:

Майкл Б. Джордан (Adonis Johnson), Сильвестр Сталлоне (Rocky Balboa), Тесса Томпсон (Bianca), Филисия Рашад (Mary Anne Creed), Дольф Лундгрен (Ivan Drago), Флориан Мунтяну (Viktor Drago), Расселл Хорнсби (Buddy Marcelle), Вуд Харрис (Tony «Little Duke» Burton), Майло Вентимилья (Robert Balboa), Робби Джонс (Logan Balboa), Андре Уорд (Danny «Stuntman» Wheeler), Бриджит Нильсен (Ludmilla Drago)
Описание:
Жизнь Адониса Крида превратилась в череду компромиссов. Пока он разрывается между долгом и тренировками к следующему большому бою, судьба готовит ему новую невыполнимую миссию. Будущий противник тесно связан с историей его семьи, что лишь повышает ставки перед предстоящим выходом на ринг. Рокки Бальбоа всегда будет на стороне Крида, и вместе они выйдут на битву с призраками их общего прошлого, выяснят, за что действительно стоит сражаться, и поймут, что нет ничего дороже семьи. Нужно вернуться к истокам, чтобы вспомнить, что именно сделало тебя чемпионом, и что, куда бы ты не бежал, от себя все равно не скрыться.
Рейтинг:

MPAA: PG-13 - Детям до 13 лет просмотр не желателен
Качество: BDRip 1080p
Формат: MKV
Видео: HEVC, 4430 Кбит/с, 1920x800, 23.976 кадр/с, 10 бит
Аудио: Русский - 48 kHz, AC3, 5.1, 640 Kbps | Лицензия |
Аудио: Русский - 48 kHz, AC3, 2.0, 192 Kbps | Профессиональный многоголосый | [HDRezka Studio] |
Аудио: Украинский - 48 kHz, AC3, 2.0, 192 Kbps | Дублированный-Line |
Аудио: Английский - 48 kHz, AC3, 5.1, 448 Kbps | Оригинал |
Аудио: Французский - 48 kHz, AC3, 5.1, 640 Kbps | Оригинал |
Аудио: Испанский - 48 kHz, AC3, 5.1, 640 Kbps | Оригинал |
Аудио: Португальский - 48 kHz, AC3, 5.1, 640 Kbps | Оригинал |
Навигация по главам: есть
Общее
Уникальный идентификатор : 216603287233641473466064650835704295449 (0xA2F44693DB0AF40CAF7E8B51C33E3019)
Полное имя : G:\Creed.II.2018.BDRip.1080p.HEVC.x265.10bit.Master5.mkv
Формат : Matroska
Версия формата : Version 4
Размер файла : 7,51 Гбайт
Продолжительность : 2 ч. 10 м.
Общий поток : 8274 Кбит/сек
Название фильма : Creed.II.2018.BDRip.1080p.HEVC.x265.10bit.Master5
Дата кодирования : UTC 2019-03-15 23:43:08
Программа кодирования : mkvmerge v7.9.0 ('Birds') 64bit
Библиотека кодирования : libebml v1.3.1 + libmatroska v1.4.2
Обложка : Yes
Attachments : cover_land.jpg / small_cover.jpg / small_cover_land.jpg / cover.jpg / Cover - Creed II.png

Видео
Идентификатор : 1
Формат : HEVC
Формат/Информация : High Efficiency Video Coding
Профиль формата : Main 10@L4.1@High
Идентификатор кодека : V_MPEGH/ISO/HEVC
Продолжительность : 2 ч. 10 м.
Битрейт : 4430 Кбит/сек
Ширина : 1920 пикселей
Высота : 800 пикселей
Соотношение сторон : 2,40:1
Режим частоты кадров : Постоянный
Частота кадров : 23,976 (24000/1001) кадра/сек
Цветовое пространство : YUV
Субдискретизация насыщенности : 4:2:0
Битовая глубина : 10 бит
Бит/(Пиксели*Кадры) : 0.120
Размер потока : 4,02 Гбайт (54%)
Заголовок : Creed.II.2018.BDRip.1080p.HEVC.x265.10bit.Master5
Библиотека кодирования : x265 3.0+1-ed72af837053:[Windows][GCC 8.2.0][64 bit] 10bit
Настройки программы : cpuid=1111039 / frame-threads=4 / numa-pools=14,14 / wpp / pmode / no-pme / no-psnr / no-ssim / log-level=2 / input-csp=1 / input-res=1920x800 / interlace=0 / total-frames=187024 / level-idc=41 / high-tier=1 / uhd-bd=0 / ref=3 / no-allow-non-conformance / no-repeat-headers / annexb / no-aud / no-hrd / info / hash=0 / no-temporal-layers / open-gop / min-keyint=23 / keyint=240 / gop-lookahead=0 / bframes=4 / b-adapt=2 / b-pyramid / bframe-bias=0 / rc-lookahead=20 / lookahead-slices=5 / scenecut=40 / radl=0 / no-splice / no-intra-refresh / ctu=32 / min-cu-size=8 / no-rect / no-amp / max-tu-size=32 / tu-inter-depth=1 / tu-intra-depth=1 / limit-tu=0 / rdoq-level=0 / dynamic-rd=0.00 / no-ssim-rd / signhide / no-tskip / nr-intra=0 / nr-inter=0 / no-constrained-intra / no-strong-intra-smoothing / max-merge=2 / limit-refs=0 / no-limit-modes / me=2 / subme=5 / merange=32 / temporal-mvp / weightp / no-weightb / no-analyze-src-pics / deblock=-3:-3 / no-sao / no-sao-non-deblock / rd=5 / no-early-skip / rskip / no-fast-intra / no-tskip-fast / no-cu-lossless / no-b-intra / no-splitrd-skip / rdpenalty=0 / psy-rd=2.00 / psy-rdoq=0.00 / no-rd-refine / no-lossless / cbqpoffs=0 / crqpoffs=0 / rc=crf / crf=16.0 / qcomp=0.60 / qpstep=4 / stats-write=0 / stats-read=0 / vbv-maxrate=50000 / vbv-bufsize=50000 / vbv-init=0.9 / crf-max=0.0 / crf-min=0.0 / ipratio=1.40 / pbratio=1.30 / aq-mode=3 / aq-strength=0.95 / cutree / zone-count=0 / no-strict-cbr / qg-size=32 / no-rc-grain / qpmax=69 / qpmin=0 / no-const-vbv / sar=0 / overscan=0 / videoformat=5 / range=0 / colorprim=1 / transfer=1 / colormatrix=1 / chromaloc=0 / display-window=0 / max-cll=0,0 / min-luma=0 / max-luma=1023 / log2-max-poc-lsb=8 / vui-timing-info / vui-hrd-info / slices=1 / no-opt-qp-pps / no-opt-ref-list-length-pps / no-multi-pass-opt-rps / scenecut-bias=0.05 / no-opt-cu-delta-qp / no-aq-motion / no-hdr / no-hdr-opt / no-dhdr10-opt / no-idr-recovery-sei / analysis-reuse-level=5 / scale-factor=0 / refine-intra=0 / refine-inter=0 / refine-mv=0 / refine-ctu-distortion=0 / no-limit-sao / ctu-info=0 / no-lowpass-dct / refine-analysis-type=0 / copy-pic=1 / max-ausize-factor=1.0 / no-dynamic-refine / no-single-sei / no-hevc-aq / qp-adaptation-range=1.00
Язык : English
Default : Да
Forced : Нет
Цветовой диапазон : Limited
Основные цвета : BT.709
Характеристики трансфера : BT.709
Коэффициенты матрицы : BT.709

Аудио #1
Идентификатор : 2
Формат : AC-3
Формат/Информация : Audio Coding 3
Коммерческое название : Dolby Digital
Идентификатор кодека : A_AC3
Продолжительность : 2 ч. 10 м.
Вид битрейта : Постоянный
Битрейт : 640 Кбит/сек
Каналы : 6 каналов
Channel layout : L R C LFE Ls Rs
Частота : 48,0 КГц
Частота кадров : 31,250 кадров/сек (1536 SPF)
Битовая глубина : 16 бит
Метод сжатия : С потерями
Размер потока : 595 Мбайт (8%)
Заголовок : Дублированный (Лицензия)
Язык : Russian
ServiceKind/String : Complete Main
Default : Да
Forced : Нет

Аудио #2
Идентификатор : 3
Формат : AC-3
Формат/Информация : Audio Coding 3
Коммерческое название : Dolby Digital
Идентификатор кодека : A_AC3
Продолжительность : 2 ч. 9 м.
Вид битрейта : Постоянный
Битрейт : 192 Кбит/сек
Каналы : 2 канала
Channel layout : L R
Частота : 48,0 КГц
Частота кадров : 31,250 кадров/сек (1536 SPF)
Битовая глубина : 16 бит
Метод сжатия : С потерями
Размер потока : 179 Мбайт (2%)
Заголовок : MVO HDRezka Studio
Язык : Russian
ServiceKind/String : Complete Main
Default : Нет
Forced : Нет

Аудио #3
Идентификатор : 4
Формат : AC-3
Формат/Информация : Audio Coding 3
Коммерческое название : Dolby Digital
Идентификатор кодека : A_AC3
Продолжительность : 2 ч. 10 м.
Вид битрейта : Постоянный
Битрейт : 192 Кбит/сек
Каналы : 2 канала
Channel layout : L R
Частота : 48,0 КГц
Частота кадров : 31,250 кадров/сек (1536 SPF)
Битовая глубина : 16 бит
Метод сжатия : С потерями
Размер потока : 179 Мбайт (2%)
Заголовок : Line
Язык : Ukrainian
ServiceKind/String : Complete Main
Default : Нет
Forced : Нет

Аудио #4
Идентификатор : 5
Формат : AC-3
Формат/Информация : Audio Coding 3
Коммерческое название : Dolby Digital
Идентификатор кодека : A_AC3
Продолжительность : 2 ч. 10 м.
Вид битрейта : Постоянный
Битрейт : 448 Кбит/сек
Каналы : 6 каналов
Channel layout : L R C LFE Ls Rs
Частота : 48,0 КГц
Частота кадров : 31,250 кадров/сек (1536 SPF)
Битовая глубина : 16 бит
Метод сжатия : С потерями
Размер потока : 417 Мбайт (5%)
Язык : English
ServiceKind/String : Complete Main
Default : Нет
Forced : Нет

Аудио #5
Идентификатор : 6
Формат : AC-3
Формат/Информация : Audio Coding 3
Коммерческое название : Dolby Digital
Идентификатор кодека : A_AC3
Продолжительность : 2 ч. 10 м.
Вид битрейта : Постоянный
Битрейт : 640 Кбит/сек
Каналы : 6 каналов
Channel layout : L R C LFE Ls Rs
Частота : 48,0 КГц
Частота кадров : 31,250 кадров/сек (1536 SPF)
Битовая глубина : 16 бит
Метод сжатия : С потерями
Размер потока : 595 Мбайт (8%)
Язык : French
ServiceKind/String : Complete Main
Default : Нет
Forced : Нет

Аудио #6
Идентификатор : 7
Формат : AC-3
Формат/Информация : Audio Coding 3
Коммерческое название : Dolby Digital
Идентификатор кодека : A_AC3
Продолжительность : 2 ч. 10 м.
Вид битрейта : Постоянный
Битрейт : 640 Кбит/сек
Каналы : 6 каналов
Channel layout : L R C LFE Ls Rs
Частота : 48,0 КГц
Частота кадров : 31,250 кадров/сек (1536 SPF)
Битовая глубина : 16 бит
Метод сжатия : С потерями
Размер потока : 595 Мбайт (8%)
Язык : Spanish
ServiceKind/String : Complete Main
Default : Нет
Forced : Нет

Аудио #7
Идентификатор : 8
Формат : AC-3
Формат/Информация : Audio Coding 3
Коммерческое название : Dolby Digital
Идентификатор кодека : A_AC3
Продолжительность : 2 ч. 10 м.
Вид битрейта : Постоянный
Битрейт : 640 Кбит/сек
Каналы : 6 каналов
Channel layout : L R C LFE Ls Rs
Частота : 48,0 КГц
Частота кадров : 31,250 кадров/сек (1536 SPF)
Битовая глубина : 16 бит
Метод сжатия : С потерями
Размер потока : 595 Мбайт (8%)
Язык : Portuguese
ServiceKind/String : Complete Main
Default : Нет
Forced : Нет

Аудио #8
Идентификатор : 9
Формат : AC-3
Формат/Информация : Audio Coding 3
Коммерческое название : Dolby Digital
Идентификатор кодека : A_AC3
Продолжительность : 2 ч. 10 м.
Вид битрейта : Постоянный
Битрейт : 448 Кбит/сек
Каналы : 6 каналов
Channel layout : L R C LFE Ls Rs
Частота : 48,0 КГц
Частота кадров : 31,250 кадров/сек (1536 SPF)
Битовая глубина : 16 бит
Метод сжатия : С потерями
Размер потока : 417 Мбайт (5%)
Язык : English
ServiceKind/String : Complete Main
Default : Нет
Forced : Нет

Текст #1
Идентификатор : 10
Формат : UTF-8
Идентификатор кодека : S_TEXT/UTF8
Идентификатор кодека/Информация : UTF-8 Plain Text
Продолжительность : 1 ч. 57 м.
Битрейт : 0 бит/сек
ElementCount : 16
Размер потока : 641 байт (0%)
Заголовок : Forced
Язык : Russian
Default : Да
Forced : Нет

Текст #2
Идентификатор : 11
Формат : UTF-8
Идентификатор кодека : S_TEXT/UTF8
Идентификатор кодека/Информация : UTF-8 Plain Text
Продолжительность : 2 ч. 5 м.
Битрейт : 48 бит/сек
ElementCount : 1529
Размер потока : 44,5 Кбайт (0%)
Заголовок : Full
Язык : English
Default : Нет
Forced : Нет

Меню
00:00:00.000 : en:Chapter 01
00:11:33.150 : en:Chapter 02
00:20:06.163 : en:Chapter 03
00:33:28.006 : en:Chapter 04
00:43:49.126 : en:Chapter 05
00:57:51.885 : en:Chapter 06
01:06:38.869 : en:Chapter 07
01:20:12.516 : en:Chapter 08
01:31:01.956 : en:Chapter 09
01:40:14.216 : en:Chapter 10
01:50:31.458 : en:Chapter 11
02:02:55.910 : en:Chapter 12
pb.wtf



Скачать Крид 2 через торрент https://b.radikal.ru/b31/1903/b6/94545b1b8f02.png Скачать фильм Крид 2 через торрент бесплантно в хорошем качестве Описание: Жизнь Адониса Крида превратилась в череду компромиссов. Пока он разрывается между долгом и тренировками к следующему большому ... 10 10 9
Торрент: Зарегистрирован [2019-03-16 08:20] · скачан: 479 раз
Статус: √ проверено
Размер: 7.51 GB
Как cкачать? Как скачать Крид 2 через торрент | qTorrent

% Раздел Тема Автор DL S | L
Фильмы (HD 720p, 1080p) (48-60 fps) [ 17.46 GB ] Крид 2 / Creed II [2018 BDRip 1080p 60 fps] [] sheker187 Скачать
1 | 0
Фильмы 2018 [DVDrip, WEB-DLRip, HDrip] (DUB, MVO) [ 2.18 GB ] Крид 2 / Creed II [2018 BDRip] - [] Twi7ter Скачать
2 | 0
Фильмы 2018 [DVDrip, WEB-DLRip, HDrip] (DUB, MVO) [ 1.46 GB ] Крид 2 / Creed II [2018 BDRip] DUB [] Skandar2019 Скачать
3 | 0
Ultra HD (UHD: 2K, 4K, 8K) — видео сверхвысокой чёткости [ 53.03 GB ] Крид 2 / Creed II [2018 UHD Blu-ray 2160p] DUB [] [Dolby Vision] sheker187 Скачать
1 | 0
Фильмы 2018 [DVDrip, WEB-DLRip, HDrip] (DUB, MVO) [ 1.46 GB ] Крид 2 / Creed II [2018 BDRip] - [] Twi7ter Скачать
2 | 0
# Фильмы (мультфильмы) cо спонсором показа (Новинки AVI/MKV) [ 11.82 GB ] Крид 2 / Creed II [2018 BDRip 1080p] DUB [Line] bober100 Скачать
1 | 0
Ultra HD (UHD: 2K, 4K, 8K) — видео сверхвысокой чёткости [ 42.57 GB ] Крид 2 / Creed II [2018 UHD BDRemux 2160p] DUB [] + MVO [HDRezka Studio] sheker187 Скачать
2 | 0

28-11-2019 20:33  

Отключить всю рекламу на сайте

    Дорогой пользователь! Огромная просьба, поблагодарите релизера, оцените раздачу и оставьте свои комментарий, если Вы скачали Крид 2 через торрент бесплатно! Внесите свою лепту в развитие PiratBit!
    Комментировать посты могут только пользователи прошедшие не сложную регистрацию
    Показать сообщения:    

    Крид 2 через торрент
    Скачать бесплатно Крид 2
    Крид 2 скачать торрент
    Крид 2 смотреть онлайн
    Cкачать фильм Крид 2 бесплатно
    Крид 2 скачать торрент в хорошем качестве
    Крид 2 смотреть онлайн бесплатно в хорошем качестве


    Вы не можете начинать темы
    Вы не можете отвечать на сообщения
    Вы не можете редактировать свои сообщения
    Вы не можете удалять свои сообщения
    Вы не можете голосовать в опросах
    Вы не можете прикреплять файлы к сообщениям
    Вы можете скачивать файлы