новый адрес
Мега распродажа FORZA HORIZON 4 ULTIMATE+ВСЕ DLC+ОНЛАЙН всего за 499р. 349 руб. (супер цена). Внимание количество ограничено!!!

iTunes

1+1

iTunes

мы

iTunes

1

iTunes

Чернобыль

iTunes

Ральф против интернета

Лицензия

ПШазам

Лицензия

Игра престолов

Лицензия

30
pack

ВАЖНО

!!Акция!!

Alien_RageХит недели

RePack

Resident Evil 21

ИГРА 18+

pack

RePack

Metro:Exodus

!!Акция!!

Alien_Rage

RePack

fifa19

RePack

Assassins Creed: Odyssey

RePack

NEED FOR SPEED™ PAYBACK

3 сезон

9 сезон

Бесстыжие 9 сезон

Все сериалы

все сериалы на PB.wtf

RePack

FAR CRY 5
Ребята, катастрофически не хватает 1900р. для оплаты серверов за Октябрь (всвязи с блокировками трафик упал в 3 раза), 1-2р., выручайте.
  

Верните плату за обучение (Ольга Кознова, Татьяна Заборовская) [1963, СССР, комедия, VHSRip от AVP Studio] pb.wtf

Верните плату за обучение через торрент pb.wtf

Размер: 437 MB | Добавлен: 8 мес. назад | Торрент скачан:4 раза
Скачать  

16-03-2019 08:24 Верните плату за обучение Скачать торрент  

Верните плату за обучение
Страна: СССР
Производство: Центральное телевидение

Жанр: комедия
Год выпуска: 1963
Продолжительность: 00:38:16

Перевод: Не требуется
Cубтитры: нет
Оригинальная аудиодорожка: русский

Режиссер: Ольга Кознова, Татьяна Заборовская

В ролях:
Анатолий Кторов, Александр Комиссаров, Юрий Леонидов, Николай Свободин, Роман Фертман, Леонид Топчиев, Владимир Белокуров...
Об актёрах подробней

Описание:
Телевизионный фильм по мотивам одноименного произведения венгерского писателя Фридьеша Каранти.
Бывший ученик частной гимназии через 18 лет приходит к директору, чтобы получить обратно деньги, отданные когда-то за обучение. По его мнению, он ничему в этой гимназии не научился. Учителя проводят переэкзаменовку, ставя ему отличные отметки, невзирая на качество ответов.

Исходник: VHS
Качество видео: VHSRip
Формат видео: AVI

Видео: 704x528 (4:3), 25,000 кадров/сек, XviD ~ 1394 kbps avg, 0.150 bit/pixel
Аудио: 48 kHz, Dolby Digital AC3 2.0, 192 kbps

Раздача от:
Общее
Полное имя : Vernite.platu.za.obuchenie.1963.VHSRip_[New-team]_by_AVP_Studio.avi
Формат : AVI
Формат/Информация : Audio Video Interleave
Размер файла : 437 Мбайт
Продолжительность : 38 м. 16 с.
Общий поток : 1596 Кбит/сек
Программа кодирования : VirtualDubMod 1.5.10.3 | www.virtualdub-fr.org || (build 2550/release)
Библиотека кодирования : VirtualDubMod build 2550/release

Видео
Идентификатор : 0
Формат : MPEG-4 Visual
Профиль формата : Advanced Simple@L5
Настройки формата : BVOP1 / Custom Matrix
Параметр BVOP формата : 1
Параметр QPel формата : Нет
Параметр GMC формата : Без точки перехода
Параметр матрицы формата : Выборочная
Идентификатор кодека : XVID
Идентификатор кодека/Подсказка : XviD
Продолжительность : 38 м. 16 с.
Битрейт : 1394 Кбит/сек
Ширина : 704 пикселя
Высота : 528 пикселей
Соотношение сторон : 4:3
Частота кадров : 25,000 кадров/сек
Цветовое пространство : YUV
Субдискретизация насыщенности : 4:2:0
Битовая глубина : 8 бит
Тип развёртки : Прогрессивная
Метод сжатия : С потерями
Бит/(Пиксели*Кадры) : 0.150
Размер потока : 382 Мбайт (87%)
Библиотека кодирования : XviD 73

Аудио
Идентификатор : 1
Формат : AC-3
Формат/Информация : Audio Coding 3
Коммерческое название : Dolby Digital
Идентификатор кодека : 2000
Продолжительность : 38 м. 16 с.
Вид битрейта : Постоянный
Битрейт : 192 Кбит/сек
Каналы : 2 канала
Channel layout : L R
Частота : 48,0 КГц
Частота кадров : 31,250 кадров/сек (1536 SPF)
Битовая глубина : 16 бит
Метод сжатия : С потерями
Размер потока : 52,6 Мбайт (12%)
Выравнивание : Разделение по промежуткам
Продолжительность промежутка : 40 мс. (1,00 видеокадр)
Время предзагрузки промежутка : 500 мс
pb.wtf



Скачать Верните плату за обучение через торрент http://picplus.ru/img/1903/16/1c2fd445.png Скачать фильм Верните плату за обучение через торрент бесплантно в хорошем качестве Описание:Телевизионный фильм по мотивам одноименного произведения венгерского писателя Фридьеша Каранти.Бывший ученик частной гимназии ... 5 10 1
Торрент: Зарегистрирован [2019-03-16 08:24] · скачан: 4 раз
Статус: √ проверено
Размер: 437 MB
Как cкачать? Как скачать Верните плату за обучение через торрент | qTorrent

% Раздел Тема Автор DL S | L
Кино СССР [ 436 MB ] Верните плату за обучение [1963 СССР VHSRip-AVC от AVP Studio] AVP Studio Скачать
1 | 0


>> Регистрируемся здесь <<






Отзывы и комментарии о схеме читаем и пишем здесь: ---> Отзывы и комментарии о схеме

Новые благодарочки в телеграм довольных пользователей:
скриншот   скриншот   скриншот   скриншот   скриншот
    Дорогой пользователь! Огромная просьба, поблагодарите релизера, оцените раздачу и оставьте свои комментарий, если Вы скачали Верните плату за обучение через торрент бесплатно! Внесите свою лепту в развитие PiratBit!
    Комментировать посты могут только пользователи прошедшие не сложную регистрацию
    Показать сообщения:    

    Верните плату за обучение через торрент
    Скачать бесплатно Верните плату за обучение
    Верните плату за обучение скачать торрент
    Верните плату за обучение смотреть онлайн
    Cкачать фильм Верните плату за обучение бесплатно
    Верните плату за обучение скачать торрент в хорошем качестве
    Верните плату за обучение смотреть онлайн бесплатно в хорошем качестве


    Вы не можете начинать темы
    Вы не можете отвечать на сообщения
    Вы не можете редактировать свои сообщения
    Вы не можете удалять свои сообщения
    Вы не можете голосовать в опросах
    Вы не можете прикреплять файлы к сообщениям
    Вы можете скачивать файлы