2 сезон

iTunes

MVO

1

2 сезон

iTunes

iTunes

1 сезон

RePack

30

Ultimate

ВАЖНО

ИГРА 18+

pack

RePack

MK11
pack

Легкие деньги

RePack

jed

RePack

fifa19

RePack

RDR2

RePack

NEED FOR SPEED™ PAYBACK

4 сезон

9 сезон

Бесстыжие 9 сезон

Все сериалы

все сериалы на PB.wtf

RePack

FAR CRY 5

Anonymous, добрый день, мы не успеваем собрать деньги на оплату серверов за декабрь и январь, помогите нам пожалуйста в это трудное время. В качестве благодарности мы отключим Вам всю рекламу на сайте (укажите свой ник в строку Ваше имя)!

×
  
Magnet ссылка

Дикое сердце / Untamed Heart (Тони Билл) [1993, драма, мелодрама, комедия, BDRip 1080p by msltel] DVO pb.wtf

Дикое сердце через торрент pb.wtf

Размер: 12.29 GB | Добавлен: 1 год 10 мес. назад | Торрент скачан:27 раз
Скачать  

17-03-2019 06:40 Дикое сердце Скачать торрент  

Название: Дикое сердце
Оригинальное название: Untamed Heart
Год выпуска: 1993
Страна: США
Жанр: драма, мелодрама, комедия
Продолжительность: 01:42:08
Перевод: профессиональный двухголосый

Режиссер: Тони Билл
В ролях: Кристиан Слэйтер, Мариса Томей, Рози Перес, Кайл Сикор, Уилли Гарсон, Джеймс Кэда, Гэри Грумз, Клодия Уилкенс, Пэт Клемонс, Лотис Ки

О фильме: Кэролайн, официантке, не везёт в любви. Адам, застенчивый уборщик, работающий рядом с Кэролайн, скрывает свою симпатию к ней и не осмеливается даже начать разговор. Всё меняется однажды зимним вечером, когда девушка, возвращаясь с работы, подвергается нападению двух преступников. Адам, по счастливой случайности оказавшийся рядом, спасает её...



Качество: BDRip 1080p
Формат: MKV
Видео: MPEG-4 AVC, 15.5 Mбит/с, 1920x1040
Аудио 1: русский, AC3, 192 kbps, 2 ch, 48 kHz [закадровый двухголосый, HTB+]
Аудио 2: английский, DTS, 1509 kbps, 2 ch, 48 kHz [оригинал]
Субтитры: английские
Главы/чаптеры
Общее
Уникальный идентификатор : 189275088927035061825229787260874972239 (0x8E650E5FC9CDA5EB9D6CF38572C0DC4F)
Полное имя : D:\Video\Дикое сердце.1993.BDRip 1080p by msltel.mkv
Формат : Matroska
Версия формата : Version 4
Размер файла : 12,3 Гбайт
Продолжительность : 1 ч. 42 м.
Общий поток : 17,2 Мбит/сек
Название фильма : Rip by msltel
Дата кодирования : UTC 2019-03-17 06:46:20
Программа кодирования : mkvmerge v8.2.0 ('World of Adventure') 64bit
Библиотека кодирования : libebml v1.3.1 + libmatroska v1.4.2

Видео
Идентификатор : 1
Формат : AVC
Формат/Информация : Advanced Video Codec
Профиль формата : High@L4.1
Настройки формата : CABAC / 4 Ref Frames
Параметр CABAC формата : Да
Параметр RefFrames формата : 4 кадра
Идентификатор кодека : V_MPEG4/ISO/AVC
Продолжительность : 1 ч. 42 м.
Битрейт : 15,5 Мбит/сек
Ширина : 1920 пикселей
Высота : 1040 пикселей
Соотношение сторон : 1,85:1
Режим частоты кадров : Постоянный
Частота кадров : 23,976 (24000/1001) кадра/сек
Цветовое пространство : YUV
Субдискретизация насыщенности : 4:2:0
Битовая глубина : 8 бит
Тип развёртки : Прогрессивная
Бит/(Пиксели*Кадры) : 0.324
Размер потока : 11,1 Гбайт (90%)
Библиотека кодирования : x264 core 157 r2935 545de2f
Настройки программы : cabac=1 / ref=4 / deblock=1:-2:-2 / analyse=0x3:0x113 / me=umh / subme=11 / psy=1 / psy_rd=1.00:0.15 / mixed_ref=1 / me_range=32 / chroma_me=1 / trellis=2 / 8x8dct=1 / cqm=0 / deadzone=21,11 / fast_pskip=0 / chroma_qp_offset=-3 / threads=6 / lookahead_threads=1 / sliced_threads=0 / nr=0 / decimate=1 / interlaced=0 / bluray_compat=0 / constrained_intra=0 / bframes=8 / b_pyramid=2 / b_adapt=2 / b_bias=0 / direct=1 / weightb=1 / open_gop=0 / weightp=2 / keyint=230 / keyint_min=23 / scenecut=40 / intra_refresh=0 / rc_lookahead=40 / rc=crf / mbtree=1 / crf=15.5 / qcomp=0.60 / qpmin=0 / qpmax=69 / qpstep=4 / vbv_maxrate=50000 / vbv_bufsize=62500 / crf_max=0.0 / nal_hrd=none / filler=0 / ip_ratio=1.40 / aq=1:1.00
Язык : English
Default : Да
Forced : Нет

Аудио #1
Идентификатор : 2
Формат : AC-3
Формат/Информация : Audio Coding 3
Коммерческое название : Dolby Digital
Идентификатор кодека : A_AC3
Продолжительность : 1 ч. 42 м.
Вид битрейта : Постоянный
Битрейт : 192 Кбит/сек
Каналы : 2 канала
Channel layout : L R
Частота : 48,0 КГц
Частота кадров : 31,250 кадров/сек (1536 SPF)
Битовая глубина : 16 бит
Метод сжатия : С потерями
Размер потока : 140 Мбайт (1%)
Заголовок : DVO HTB+
Язык : Russian
ServiceKind/String : Complete Main
Default : Да
Forced : Нет

Аудио #2
Идентификатор : 3
Формат : DTS
Формат/Информация : Digital Theater Systems
Идентификатор кодека : A_DTS
Продолжительность : 1 ч. 42 м.
Вид битрейта : Постоянный
Битрейт : 1509 Кбит/сек
Каналы : 2 канала
Channel layout : L R
Частота : 48,0 КГц
Частота кадров : 93,750 кадра/сек (512 SPF)
Битовая глубина : 16 бит
Метод сжатия : С потерями
Размер потока : 1,08 Гбайт (9%)
Заголовок : original
Язык : English
Default : Нет
Forced : Нет

Текст
Идентификатор : 4
Формат : UTF-8
Идентификатор кодека : S_TEXT/UTF8
Идентификатор кодека/Информация : UTF-8 Plain Text
Продолжительность : 1 ч. 40 м.
Битрейт : 44 бит/сек
ElementCount : 1229
Размер потока : 32,9 Кбайт (0%)
Заголовок : английские
Язык : English
Default : Нет
Forced : Нет

Меню
00:00:00.000 : en:Chapter 00
00:10:16.907 : en:Chapter 01
00:18:48.752 : en:Chapter 02
00:28:21.574 : en:Chapter 03
00:45:28.350 : en:Chapter 04
01:00:57.403 : en:Chapter 05
01:13:50.134 : en:Chapter 06
01:26:59.881 : en:Chapter 07
pb.wtf



Скачать Дикое сердце через торрент https://d.radikal.ru/d01/1903/cc/7d019f3cb41e.jpg Скачать фильм Дикое сердце через торрент бесплантно в хорошем качестве О фильме: Кэролайн, официантке, не везёт в любви. Адам, застенчивый уборщик, работающий рядом с Кэролайн, скрывает свою симпатию к ней и не ... 10 10 1
Торрент: Зарегистрирован [2019-03-17 06:40] · скачан: 27 раз
Статус: √ проверено
Размер: 12.29 GB
Как cкачать? Как скачать Дикое сердце через торрент | UTorrent

% Раздел Тема Автор DL S | L
Фильмы [HD 720p, 1080p] (Хороший звук DUB, MVO) [ 4.56 GB ] Дикое сердце / Untamed Heart [1993 BDRip 720p by msltel] DVO msltel Скачать
1 | 0

28-11-2019 20:33  

Отключить всю рекламу на сайте

    Дорогой пользователь! Огромная просьба, поблагодарите релизера, оцените раздачу и оставьте свои комментарий, если Вы скачали Дикое сердце через торрент бесплатно! Внесите свою лепту в развитие PiratBit!
    Комментировать посты могут только пользователи прошедшие не сложную регистрацию
    Показать сообщения:    

    Дикое сердце через торрент
    Скачать бесплатно Дикое сердце
    Дикое сердце скачать торрент
    Дикое сердце смотреть онлайн
    Cкачать фильм Дикое сердце бесплатно
    Дикое сердце скачать торрент в хорошем качестве
    Дикое сердце смотреть онлайн бесплатно в хорошем качестве


    Вы не можете начинать темы
    Вы не можете отвечать на сообщения
    Вы не можете редактировать свои сообщения
    Вы не можете удалять свои сообщения
    Вы не можете голосовать в опросах
    Вы не можете прикреплять файлы к сообщениям
    Вы можете скачивать файлы