Всегда рабочее зеркало без VPN и Proxy просто перед .vidak.icu напиши любое слово или цифру, Пример http://mw6m.vidak.icu

MVO

2 сезон

1 сезон

1

1 сезон

iTunes

2 сезон

13

1 сезон

Распродажа

pack

Рекомендуем

Пиратка

30

ВАЖНО

RePack

MK11

RePack

jed

RePack

fifa19

RePack

RDR2

RePack

NEED FOR SPEED™ PAYBACK

Кинопоиск HD

6 сезон

 Острые козырьки 6 сезон

Все сериалы

все сериалы на PB.wtf

RePack

FAR CRY 5

Anonymous, нам критически не хватает 5601 руб. на оплату серверов и переферии за Апрель, помоги нам пожалуйста, вся надежда только на тебя. В благодарность мы отключим тебе всю рекламу на сайте!

×
  
Magnet ссылка

Обливион / Oblivion (Джозеф Косински) [2013, фантастика, боевик, триллер, приключения, мелодрама, UHD BDRip 2160p] DUB + 2xAVO pb.wtf

Обливион через торрент pb.wtf

Раздают: 1 [ 0 KB/s ]
Размер: 19.68 GB | Добавлен: 3 года 2 мес. назад | Торрент скачан:84 раза
Смотреть онлайн Обливион | Скачать    Ребята, помогите собрать деньги на оплату серверов!!!

17-03-2019 19:34 Обливион Скачать торрент  

Обливион / Oblivion««Земля - это память, за которую стоит бороться»»

Год выпуска: 2013
Страна: США
Жанр: фантастика, боевик, триллер, приключения, мелодрама
Продолжительность: 02:04:42
Перевод: Дублированный, авторский
Субтитры: Русские (forced, full x2), украинские (forced), английские (SDH)
Режиссер: Джозеф Косински
В ролях:

Том Круз (Jack), Ольга Куриленко (Julia), Андреа Райзборо (Victoria), Морган Фриман (Beech), Николай Костер-Вальдау (Sykes), Мелисса Лео (Sally), Зои Белл (Kara), Эбигейл Лоу (Julia's Child), Изабель Лоу (Julia's Child), Джон Л. Армихо (NASA Ground Control, в титрах не указан), Филеена Барис (Survivor, в титрах не указана), Джоэнн Бахрис (Tourist, в титрах не указана)
Описание:
Земля, пережившая войну с инопланетными захватчиками, опустела; остатки человечества готовятся покинуть непригодную для жизни планету. Главный герой - техник по обслуживанию дронов - находит разбившийся корабль NASA, команда которого погибает у него на глазах. Ему удаётся спасти лишь одну женщину - и вскоре он понимает, что это перевернёт его жизнь.
Рейтинг:

MPAA: PG-13 - Детям до 13 лет просмотр не желателен
Качество: UHD BDRip 2160p
Формат: MKV
Видео: HEVC HDR, 19400 Кбит/сек, 3840x1600, 23.976 кадр/с, 10 бит
Аудио 1: AC3, 6 ch, 640 kbps - Русский (Дубляж, BD CEE)
Аудио 2: AC3, 6 ch, 448 kbps - Украинский (MVO, ТК "Україна")
Аудио 3: AC3, 6 ch, 640 kbps - Русский (AVO, Ю. Сербин)
Аудио 4: AC3, 6 ch, 640 kbps - Русский (AVO, Л. Володарский)
Аудио 5: AC3, 6 ch, 640 kbps - Английский (Оригинал)
Аудио 6: AC3, 2 ch, 192 kbps - Английский (Commentary by Joseph Kosinski & Tom Cruise)
Навигация по главам: есть
General
Unique ID : 136862158715857833539837176380030061146 (0x66F6B166A438FA6F930770F1B1360A5A)
Complete name : S:OBLVN_2013_UHD-BDRip_HDR_BT2020_x265_2160p.mkv
Format : Matroska
Format version : Version 4
File size : 19.7 GiB
Duration : 2 h 4 min
Overall bit rate : 22.6 Mb/s
Movie name : Oblivion (2013) UHD-BDRip HDR BT2020 x265 2160p -BLUEBIRD
Encoded date : UTC 2018-08-10 11:52:26
Writing application : mkvmerge v25.0.0 ('Prog Noir') 64-bit
Writing library : libebml v1.3.6 + libmatroska v1.4.9
Attachments : 595_500.jpg / Log_x265_Oblivion.txt

Video
ID : 1
Format : HEVC
Format/Info : High Efficiency Video Coding
Commercial name : HDR10
Format profile : Main 10@L5.1@High
Codec ID : V_MPEGH/ISO/HEVC
Duration : 2 h 4 min
Bit rate : 19.4 Mb/s
Width : 3 840 pixels
Height : 1 600 pixels
Display aspect ratio : 2.40:1
Frame rate mode : Constant
Frame rate : 23.976 (24000/1001) FPS
Color space : YUV
Chroma subsampling : 4:2:0 (Type 2)
Bit depth : 10 bits
Bits/(Pixel*Frame) : 0.132
Stream size : 16.9 GiB (86%)
Title : OBLVN_2013_UHD_HDR_BT2020_x265_2160p -BLUEBIRD
Writing library : x265 2.8+56-613074c6714f:[Windows][MSVC 1914][64 bit] 10bit
Encoding settings : cpuid=1111039 / frame-threads=3 / numa-pools=12 / wpp / no-pmode / no-pme / no-psnr / no-ssim / log-level=2 / input-csp=1 / input-res=3840x1600 / interlace=0 / total-frames=179267 / level-idc=51 / high-tier=1 / uhd-bd=0 / ref=4 / no-allow-non-conformance / repeat-headers / annexb / no-aud / hrd / info / hash=0 / no-temporal-layers / no-open-gop / min-keyint=24 / keyint=240 / gop-lookahead=0 / bframes=16 / b-adapt=2 / b-pyramid / bframe-bias=0 / rc-lookahead=96 / lookahead-slices=4 / scenecut=40 / radl=0 / no-intra-refresh / ctu=64 / min-cu-size=8 / no-rect / no-amp / max-tu-size=32 / tu-inter-depth=1 / tu-intra-depth=1 / limit-tu=0 / rdoq-level=2 / dynamic-rd=0.00 / no-ssim-rd / signhide / no-tskip / nr-intra=0 / nr-inter=0 / no-constrained-intra / no-strong-intra-smoothing / max-merge=5 / limit-refs=3 / limit-modes / me=3 / subme=7 / merange=57 / temporal-mvp / weightp / weightb / no-analyze-src-pics / deblock=0:0 / no-sao / no-sao-non-deblock / rd=4 / no-early-skip / no-rskip / no-fast-intra / no-tskip-fast / no-cu-lossless / no-b-intra / no-splitrd-skip / rdpenalty=0 / psy-rd=2.38 / psy-rdoq=1.35 / no-rd-refine / no-lossless / cbqpoffs=0 / crqpoffs=0 / rc=crf / crf=15.0 / qcomp=0.62 / qpstep=4 / stats-write=0 / stats-read=0 / vbv-maxrate=160000 / vbv-bufsize=160000 / vbv-init=0.9 / crf-max=0.0 / crf-min=0.0 / ipratio=1.20 / pbratio=1.10 / aq-mode=0 / aq-strength=0.00 / no-cutree / zone-count=1 / zones: / start-frame=170212 / end-frame=179266 / qp=34 / no-strict-cbr / qg-size=32 / no-rc-grain / qpmax=69 / qpmin=0 / no-const-vbv / sar=0 / overscan=0 / videoformat=5 / range=0 / colorprim=9 / transfer=16 / colormatrix=9 / chromaloc=1 / chromaloc-top=2 / chromaloc-bottom=2 / display-window=0 / master-display=G(13250,34500)B(7500,3000)R(34000,16000)WP(15635,16450)L(10000000,50) / max-cll=1000,400 / min-luma=0 / max-luma=1023 / log2-max-poc-lsb=8 / vui-timing-info / vui-hrd-info / slices=1 / no-opt-qp-pps / no-opt-ref-list-length-pps / no-multi-pass-opt-rps / scenecut-bias=0.05 / no-opt-cu-delta-qp / no-aq-motion / hdr / hdr-opt / no-dhdr10-opt / no-idr-recovery-sei / analysis-reuse-level=5 / scale-factor=0 / refine-intra=0 / refine-inter=0 / refine-mv=0 / no-limit-sao / ctu-info=0 / no-lowpass-dct / refine-mv-type=0 / copy-pic=1 / max-ausize-factor=1.0 / no-dynamic-refine / no-single-sei
Default : Yes
Forced : No
Color range : Limited
Color primaries : BT.2020
Transfer characteristics : PQ
Matrix coefficients : BT.2020 non-constant
Mastering display color pri : Display P3
Mastering display luminance : min: 0.0050 cd/m2, max: 1000 cd/m2
Maximum Content Light Level : 1000 cd/m2
Maximum Frame-Average Light : 400 cd/m2

Audio #1
ID : 2
Format : AC-3
Format/Info : Audio Coding 3
Commercial name : Dolby Digital
Codec ID : A_AC3
Duration : 2 h 4 min
Bit rate mode : Constant
Bit rate : 640 kb/s
Channel(s) : 6 channels
Channel layout : L R C LFE Ls Rs
Sampling rate : 48.0 kHz
Frame rate : 31.250 FPS (1536 SPF)
Bit depth : 16 bits
Compression mode : Lossy
Stream size : 570 MiB (3%)
Title : Dub
Language : Russian
Service kind : Complete Main
Default : Yes
Forced : No

Audio #2
ID : 3
Format : AC-3
Format/Info : Audio Coding 3
Commercial name : Dolby Digital
Codec ID : A_AC3
Duration : 2 h 4 min
Bit rate mode : Constant
Bit rate : 448 kb/s
Channel(s) : 6 channels
Channel layout : L R C LFE Ls Rs
Sampling rate : 48.0 kHz
Frame rate : 31.250 FPS (1536 SPF)
Bit depth : 16 bits
Compression mode : Lossy
Stream size : 399 MiB (2%)
Title : MVO ТК "Україна"
Language : Ukrainian
Service kind : Complete Main
Default : No
Forced : No

Audio #3
ID : 4
Format : AC-3
Format/Info : Audio Coding 3
Commercial name : Dolby Digital
Codec ID : A_AC3
Duration : 2 h 4 min
Bit rate mode : Constant
Bit rate : 640 kb/s
Channel(s) : 6 channels
Channel layout : L R C LFE Ls Rs
Sampling rate : 48.0 kHz
Frame rate : 31.250 FPS (1536 SPF)
Bit depth : 16 bits
Compression mode : Lossy
Stream size : 570 MiB (3%)
Title : VO [Serbin]
Language : Russian
Service kind : Complete Main
Default : No
Forced : No

Audio #4
ID : 5
Format : AC-3
Format/Info : Audio Coding 3
Commercial name : Dolby Digital
Codec ID : A_AC3
Duration : 2 h 4 min
Bit rate mode : Constant
Bit rate : 640 kb/s
Channel(s) : 6 channels
Channel layout : L R C LFE Ls Rs
Sampling rate : 48.0 kHz
Frame rate : 31.250 FPS (1536 SPF)
Bit depth : 16 bits
Compression mode : Lossy
Stream size : 570 MiB (3%)
Title : VO [Volodarsky]
Language : Russian
Service kind : Complete Main
Default : No
Forced : No

Audio #5
ID : 6
Format : AC-3
Format/Info : Audio Coding 3
Commercial name : Dolby Digital
Codec ID : A_AC3
Duration : 2 h 4 min
Bit rate mode : Constant
Bit rate : 640 kb/s
Channel(s) : 6 channels
Channel layout : L R C LFE Ls Rs
Sampling rate : 48.0 kHz
Frame rate : 31.250 FPS (1536 SPF)
Bit depth : 16 bits
Compression mode : Lossy
Stream size : 570 MiB (3%)
Title : core
Language : English
Service kind : Complete Main
Default : No
Forced : No

Audio #6
ID : 7
Format : AC-3
Format/Info : Audio Coding 3
Commercial name : Dolby Digital
Codec ID : A_AC3
Duration : 2 h 4 min
Bit rate mode : Constant
Bit rate : 192 kb/s
Channel(s) : 2 channels
Channel layout : L R
Sampling rate : 48.0 kHz
Frame rate : 31.250 FPS (1536 SPF)
Bit depth : 16 bits
Compression mode : Lossy
Stream size : 171 MiB (1%)
Title : Commentary by Joseph Kosinski & Tom Cruise
Language : English
Service kind : Complete Main
Default : No
Forced : No

Text #1
ID : 8
Format : UTF-8
Codec ID : S_TEXT/UTF8
Codec ID/Info : UTF-8 Plain Text
Duration : 1 h 17 min
Bit rate : 0 b/s
Count of elements : 15
Stream size : 375 Bytes (0%)
Title : forced
Language : Russian
Default : Yes
Forced : Yes

Text #2
ID : 9
Format : UTF-8
Codec ID : S_TEXT/UTF8
Codec ID/Info : UTF-8 Plain Text
Duration : 1 h 57 min
Bit rate : 50 b/s
Count of elements : 944
Stream size : 43.3 KiB (0%)
Title : full [BD]
Language : Russian
Default : No
Forced : No

Text #3
ID : 10
Format : UTF-8
Codec ID : S_TEXT/UTF8
Codec ID/Info : UTF-8 Plain Text
Duration : 1 h 57 min
Bit rate : 55 b/s
Count of elements : 970
Stream size : 47.5 KiB (0%)
Title : full [E. Voronine]
Language : Russian
Default : No
Forced : No

Text #4
ID : 11
Format : UTF-8
Codec ID : S_TEXT/UTF8
Codec ID/Info : UTF-8 Plain Text
Duration : 1 h 11 min
Bit rate : 0 b/s
Count of elements : 14
Stream size : 306 Bytes (0%)
Title : forced
Language : Ukrainian
Default : No
Forced : No

Text #5
ID : 12
Format : UTF-8
Codec ID : S_TEXT/UTF8
Codec ID/Info : UTF-8 Plain Text
Duration : 1 h 57 min
Bit rate : 33 b/s
Count of elements : 1026
Stream size : 28.7 KiB (0%)
Title : SDH [BD UHD]
Language : English
Default : No
Forced : No

Menu
00:00:00.000 : :Chapter 01
00:04:31.353 : :Chapter 02
00:12:51.812 : :Chapter 03
00:21:25.284 : :Chapter 04
00:27:20.137 : :Chapter 05
00:35:30.335 : :Chapter 06
00:40:06.778 : :Chapter 07
00:46:16.023 : :Chapter 08
00:52:22.179 : :Chapter 09
01:01:59.715 : :Chapter 10
01:07:59.407 : :Chapter 11
01:16:25.831 : :Chapter 12
01:22:08.172 : :Chapter 13
01:25:31.751 : :Chapter 14
01:30:22.542 : :Chapter 15
01:36:30.367 : :Chapter 16
01:40:29.105 : :Chapter 17
01:46:27.421 : :Chapter 18
01:53:05.319 : :Chapter 19
01:58:23.845 : :Chapter 20
02:04:36.676 : :Chapter 21
pb.wtf



Скачать Обливион через торрент https://d.radikal.ru/d00/1903/ce/74f7920e4058.png Скачать, смотреть онлайн Обливион бесплантно в хорошем качестве Описание: Земля, пережившая войну с инопланетными захватчиками, опустела; остатки человечества готовятся покинуть непригодную для жизни ... 9.7 10 9
Info! Золотая раздача, скачанное не засчитывается.
Торрент: Зарегистрирован [2019-03-17 19:34] · скачан: 84 раз
Статус: √ проверено
Размер: 19.68 GB
Как cкачать? Как скачать Обливион через торрент | UTorrent

% Раздел Тема Автор DL S | L
Ultra HD (UHD: 2K, 4K, 8K) — видео сверхвысокой чёткости [ 61.77 GB ] Обливион / Oblivion [2013 антиутопия постапокалипсис UHD BDRemux 2160p] [] DUB+2xAVO bober100 Скачать
1 | 0
Фильмы [HD 720p, 1080p] (Хороший звук DUB, MVO) [ 15.97 GB ] Обливион / Oblivion [2013 BDRip 1080p] DUB + 2xAVO + Original Eng -Lexx- Скачать
1 | 0

28-11-2019 20:33  

Отключить всю рекламу на сайте

    Дорогой пользователь! Огромная просьба, поблагодарите релизера, оцените раздачу и оставьте свои комментарий, если Вы скачали Обливион через торрент бесплатно!
    Комментировать посты могут только пользователи прошедшие не сложную регистрацию
    Показать сообщения:    

    Обливион через торрент
    Скачать бесплатно Обливион
    Обливион скачать торрент
    Обливион смотреть онлайн
    Cкачать фильм Обливион бесплатно
    Обливион скачать торрент в хорошем качестве
    Обливион смотреть онлайн бесплатно в хорошем качестве


    Вы не можете начинать темы
    Вы не можете отвечать на сообщения
    Вы не можете редактировать свои сообщения
    Вы не можете удалять свои сообщения
    Вы не можете голосовать в опросах
    Вы не можете прикреплять файлы к сообщениям
    Вы можете скачивать файлы