Ссылка на приватное зеркало нашего сайта всего за 1$. Внимание количество ограничено!!!

2 сезон

iTunes

1 сезон

1

2 сезон

2 сезон

iTunes

1 сезон

RePack

30

Ultimate

ВАЖНО

ИГРА 18+

pack

RePack

MK11
pack

Забери бонус

RePack

jed

!!Акция!!

Alien_Rage

RePack

fifa19

RePack

Assassins Creed: Odyssey

RePack

NEED FOR SPEED™ PAYBACK

4 сезон

9 сезон

Бесстыжие 9 сезон

Все сериалы

все сериалы на PB.wtf

RePack

FAR CRY 5
  

А теперь – апокалипсис / Now Apocalypse / Сезон: 1 / Серии: 1 из 10 (Грегг Араки) [2019 , комедия, UHD WEBRip 2160p] [SDR] MVO [Jaskier] pb.wtf

А теперь – апокалипсис через торрент pb.wtf

Размер: 3.33 GB | Добавлен: 1 год 8 мес. назад | Торрент скачан:16 раз
Скачать  

18-03-2019 06:28 А теперь – апокалипсис Скачать торрент  

А теперь – апокалипсис / Now Apocalypse

Год выпуска: 2019
Страна: США
Жанр: комедия
Продолжительность: 1 x ~ 00:29:46
Перевод: Профессиональный многоголосый | Jaskier
Субтитры: Русские (ненормативная лексика), английские
Режиссер: Грегг Араки
В ролях:

Эван Джогиа (Ulysses Zane), Келли Бёрглунд (Carly), Бо Мирчофф (Ford Halstead), Роксана Мескида (Severine Bordeaux), Тайлер Пози (Gabriel), Джейкоб Артист (Isaac), Десмонд Чайм (Jethro), Крис Аквилино (Kai), Тейлор Герард Харт (Klaus), Ивэн Харт Брюс (Lars), Кевин Дэниелс (Barnabas), Грэйс Виктория Кокс (Amber)
Описание:
Лос-Анджелес, где живут Улисс и его друзья, пытаясь добиться славы, секса и любви. Они заняты неустанными поисками себя, исследованием творчества и собственной сексуальности. Но в безумном водовороте жизни Улисс начинает подозревать, что мир вокруг - часть заговора. Или ему просто пора завязывать с травкой.
Рейтинг:

Качество: UHD WEBRip 2160p | SDR
Формат: MKV
Видео: HEVC, 14.8 Мбит/с, 3840x2160, 10 бит
Аудио №1: русский / PCM, 1 ch, 768 Кбит/с - MVO [Jaskier] (присутствует ненормативная лексика!)
Аудио №2: английский / E-AC3, 6 ch, 448 Кбит/с

Без рекламы!
01. This Is The Beginning of The End (10.03.2019)
Когда раздача ведётся путём добавления новых серий, при каждом добавлении создётся новый торрент. Чтобы начать докачку новой серии, пользователям необходимо сделать следующее:
(1) остановить скачивание,
(2) удалить старый торрент у себя из клиента (старые серии удалять не надо),
(3) скачать новый торрент и запустить его у себя в клиенте вместо старого, при этом указать клиенту путь в старую папку, куда и должно происходить скачивание новых серий.
Ваш клиент при этом должен произвести хеширование (проверку) старой папки (если не производит сам - помогите ему сделать это), и будет докачивать только те серии, которых у вас ещё нет. Старые серии при этом не удаляются, а продолжают раздаваться!
Eсли вы уже удалили старые серии, то предотвратить повторную закачку старых серий можно, отжав галочку в соответствующих местах при запуске нового торрента. По возможности, желательно не удалять старые серии как можно дольше, чтобы релизер не столько продолжал раздавать старые серии, а смог сконцентрироваться на новых.
Общее
Уникальный идентификатор : 307586457075915469935230402113895731794 (0xE766FF2F66EF4FE328AC16985E9D1252)
Полное имя : Now.Apocalypse.S01E01.2160p.WEB.H265.Fatum200.mkv
Формат : Matroska
Версия формата : Version 4
Размер файла : 3,33 Гбайт
Продолжительность : 29 м. 45 с.
Общий поток : 16,0 Мбит/сек
Дата кодирования : UTC 2019-03-17 14:34:28
Программа кодирования : mkvmerge v32.0.0 ('Astral Progressions') 64-bit
Библиотека кодирования : libebml v1.3.7 + libmatroska v1.5.0

Видео
Идентификатор : 2
Формат : HEVC
Формат/Информация : High Efficiency Video Coding
Профиль формата : Main 10@L5.1@Main
Идентификатор кодека : V_MPEGH/ISO/HEVC
Продолжительность : 29 м. 45 с.
Битрейт : 14,8 Мбит/сек
Ширина : 3840 пикселей
Высота : 2160 пикселей
Соотношение сторон : 16:9
Режим частоты кадров : Постоянный
Частота кадров : 23,976 (24000/1001) кадра/сек
Частота кадров в оригинале : 23,976 (23976/1000) кадра/сек
Цветовое пространство : YUV
Субдискретизация насыщенности : 4:2:0
Битовая глубина : 10 бит
Бит/(Пиксели*Кадры) : 0.074
Размер потока : 3,08 Гбайт (92%)
Заголовок : Now.Apocalypse.S01E01.2160p.WEB.H265.Fatum200
Язык : English
Default : Да
Forced : Нет
Цветовой диапазон : Limited
Основные цвета : BT.709
Характеристики трансфера : BT.709
Коэффициенты матрицы : BT.709

Аудио #1
Идентификатор : 1
Формат : PCM
Настройки формата : Little / Signed
Идентификатор кодека : A_PCM/INT/LIT
Продолжительность : 29 м. 45 с.
Вид битрейта : Постоянный
Битрейт : 768 Кбит/сек
Частота : 48,0 КГц
Частота кадров : 32,000 кадра/сек (1500 SPF)
Битовая глубина : 16 бит
Размер потока : 163 Мбайт (5%)
Заголовок : Rus
Default : Нет
Forced : Нет

Аудио #2
Идентификатор : 3
Формат : E-AC-3
Формат/Информация : Enhanced AC-3
Коммерческое название : Dolby Digital Plus
Идентификатор кодека : A_EAC3
Продолжительность : 29 м. 45 с.
Вид битрейта : Постоянный
Битрейт : 448 Кбит/сек
Каналы : 6 каналов
Channel layout : L R C LFE Ls Rs
Частота : 48,0 КГц
Частота кадров : 31,250 кадров/сек (1536 SPF)
Метод сжатия : С потерями
Размер потока : 95,4 Мбайт (3%)
Заголовок : Eng
Язык : English
ServiceKind/String : Complete Main
Default : Да
Forced : Нет

Текст #1
Идентификатор : 4
Формат : UTF-8
Идентификатор кодека : S_TEXT/UTF8
Идентификатор кодека/Информация : UTF-8 Plain Text
Продолжительность : 29 м. 1 с.
Битрейт : 71 бит/сек
ElementCount : 505
Размер потока : 15,2 Кбайт (0%)
Заголовок : English
Язык : English
Default : Нет
Forced : Нет

Текст #2
Идентификатор : 5
Формат : UTF-8
Идентификатор кодека : S_TEXT/UTF8
Идентификатор кодека/Информация : UTF-8 Plain Text
Продолжительность : 29 м. 27 с.
Битрейт : 78 бит/сек
ElementCount : 560
Размер потока : 16,9 Кбайт (0%)
Заголовок : English (SDH)
Язык : English
Default : Нет
Forced : Нет

Текст #3
Идентификатор : 6
Формат : UTF-8
Идентификатор кодека : S_TEXT/UTF8
Идентификатор кодека/Информация : UTF-8 Plain Text
Продолжительность : 28 м. 56 с.
Битрейт : 105 бит/сек
ElementCount : 496
Размер потока : 22,3 Кбайт (0%)
Заголовок : rus
Язык : Russian
Default : Да
Forced : Нет
pb.wtf



Скачать А теперь – апокалипсис через торрент https://b.radikal.ru/b27/1903/40/fb675a2b3c2f.jpg Скачать фильм А теперь – апокалипсис через торрент бесплантно в хорошем качестве Описание: Лос-Анджелес, где живут Улисс и его друзья, пытаясь добиться славы, секса и любви. Они заняты неустанными поисками себя, ... 5.5 10 4
Торрент: Зарегистрирован [2019-03-18 06:28] · скачан: 16 раз
Статус: √ проверено
Размер: 3.33 GB
Как cкачать? Как скачать А теперь – апокалипсис через торрент | qTorrent

% Раздел Тема Автор DL S | L
Зарубежные сериалы [ 22.5 GB ] А теперь – апокалипсис / Now Apocalypse / Сезон: 1 / Серии: 1-10 из 10 [2019 WEB-DL 1080p] MVO [TVShows] bober100 Скачать
1 | 0
Зарубежные сериалы [ 4.23 GB ] А теперь – апокалипсис / Now Apocalypse / Сезон: 1 / Серии: 1-2 из 10 [2019 WEB-DL 1080p] MVO [Jaskier] bober100 Скачать
1 | 0
Зарубежные сериалы [ 3.81 GB ] А теперь – апокалипсис / Now Apocalypse / Сезон: 1 / Серии: 1-10 из 10 [2019 WEB-DLRip] MVO [Jaskier] bober100 Скачать
1 | 0

28-11-2019 20:33  

Отключить всю рекламу на сайте

    Дорогой пользователь! Огромная просьба, поблагодарите релизера, оцените раздачу и оставьте свои комментарий, если Вы скачали А теперь – апокалипсис через торрент бесплатно! Внесите свою лепту в развитие PiratBit!
    Комментировать посты могут только пользователи прошедшие не сложную регистрацию
    Показать сообщения:    

    А теперь – апокалипсис через торрент
    Скачать бесплатно А теперь – апокалипсис
    А теперь – апокалипсис скачать торрент
    А теперь – апокалипсис смотреть онлайн
    Cкачать фильм А теперь – апокалипсис бесплатно
    А теперь – апокалипсис скачать торрент в хорошем качестве
    А теперь – апокалипсис смотреть онлайн бесплатно в хорошем качестве


    Вы не можете начинать темы
    Вы не можете отвечать на сообщения
    Вы не можете редактировать свои сообщения
    Вы не можете удалять свои сообщения
    Вы не можете голосовать в опросах
    Вы не можете прикреплять файлы к сообщениям
    Вы можете скачивать файлы