новый адрес
Мега распродажа FORZA HORIZON 4 ULTIMATE+ВСЕ DLC+ОНЛАЙН всего за 499р. 349 руб. (супер цена). Внимание количество ограничено!!!

iTunes

1+1

iTunes

мы

iTunes

1

iTunes

Чернобыль

iTunes

Ральф против интернета

Лицензия

ПШазам

Лицензия

Игра престолов

Лицензия

30
pack

ВАЖНО

!!Акция!!

Alien_RageХит недели

RePack

Resident Evil 21

ИГРА 18+

pack

RePack

Metro:Exodus

!!Акция!!

Alien_Rage

RePack

fifa19

RePack

Assassins Creed: Odyssey

RePack

NEED FOR SPEED™ PAYBACK

3 сезон

9 сезон

Бесстыжие 9 сезон

Все сериалы

все сериалы на PB.wtf

RePack

FAR CRY 5
Ребята, катастрофически не хватает 1900р. для оплаты серверов за Октябрь (всвязи с блокировками трафик упал в 3 раза), 1-2р., выручайте.
  

Встреча на переправе (Гавриил Егиазаров) [1963, СССР, короткометражка, VHSRip от AVP Studio] pb.wtf

Встреча на переправе через торрент pb.wtf

Размер: 745 MB | Добавлен: 7 мес. назад | Торрент скачан:7 раз
Скачать  

18-03-2019 08:19 Встреча на переправе Скачать торрент  

Встреча на переправе
Страна: СССР
Производство: Мосфильм

Жанр: короткометражка
Год выпуска: 1963
Продолжительность: 00:47:22

Перевод: Не требуется
Cубтитры: нет
Оригинальная аудиодорожка: русский

Режиссер: Гавриил Егиазаров

В ролях:
Инга Шантырь, Геннадий Фролов, Игорь Цветков...
Об актёрах подробней

Описание:
Кончилась война. Демобилизованный солдат Чепурнов (Геннадий Фролов) едет к своей невесте Варе Карповой, которую знает по переписке. По пути на пароме Чепурнов знакомится с перевозчицей Клавдией. Молодая женщина знает его невесту и знает то, что Валентина писала не только Чепурнову. Но об этом она молчит — ей нравится задумчивый солдат, и она не хочет его расстраивать. А солдату нравится Клавдия, и он уже все знает про нее и знает то, что она одна растит сына. Но он едет к Валентине, потому что обещал. Долго Чепурнов там не задержится...

Исходник: VHS
Качество видео: VHSRip
Формат видео: AVI

Видео: 704x528 (4:3), 25,000 кадров/сек, XviD ~ 1998 kbps avg, 0.215 bit/pixel
Аудио: 48 kHz, Dolby Digital AC3 2.0, 192 kbps

Раздача от:
Общее
Полное имя : Vstrecha.na.pereprave.1963.VHSRip_[New-team]_by_AVP_Studio.avi
Формат : AVI
Формат/Информация : Audio Video Interleave
Размер файла : 745 Мбайт
Продолжительность : 47 м. 22 с.
Общий поток : 2199 Кбит/сек
Программа кодирования : VirtualDubMod 1.5.10.3 | www.virtualdub-fr.org || (build 2550/release)
Библиотека кодирования : VirtualDubMod build 2550/release

Видео
Идентификатор : 0
Формат : MPEG-4 Visual
Профиль формата : Advanced Simple@L5
Настройки формата : BVOP1 / Custom Matrix
Параметр BVOP формата : 1
Параметр QPel формата : Нет
Параметр GMC формата : Без точки перехода
Параметр матрицы формата : Выборочная
Идентификатор кодека : XVID
Идентификатор кодека/Подсказка : XviD
Продолжительность : 47 м. 22 с.
Битрейт : 1998 Кбит/сек
Ширина : 704 пикселя
Высота : 528 пикселей
Соотношение сторон : 4:3
Частота кадров : 25,000 кадров/сек
Цветовое пространство : YUV
Субдискретизация насыщенности : 4:2:0
Битовая глубина : 8 бит
Тип развёртки : Прогрессивная
Метод сжатия : С потерями
Бит/(Пиксели*Кадры) : 0.215
Размер потока : 677 Мбайт (91%)
Библиотека кодирования : XviD 73

Аудио
Идентификатор : 1
Формат : AC-3
Формат/Информация : Audio Coding 3
Коммерческое название : Dolby Digital
Идентификатор кодека : 2000
Продолжительность : 47 м. 22 с.
Вид битрейта : Постоянный
Битрейт : 192 Кбит/сек
Каналы : 2 канала
Channel layout : L R
Частота : 48,0 КГц
Частота кадров : 31,250 кадров/сек (1536 SPF)
Битовая глубина : 16 бит
Метод сжатия : С потерями
Размер потока : 65,0 Мбайт (9%)
Выравнивание : Разделение по промежуткам
Продолжительность промежутка : 40 мс. (1,00 видеокадр)
Время предзагрузки промежутка : 500 мс
pb.wtf



Скачать Встреча на переправе через торрент http://picplus.ru/img/1903/18/80d0eaa3.png Скачать фильм Встреча на переправе через торрент бесплантно в хорошем качестве Описание:Кончилась война. Демобилизованный солдат Чепурнов (Геннадий Фролов) едет к своей невесте Варе Карповой, которую знает по ... 10 10 1
Торрент: Зарегистрирован [2019-03-18 08:19] · скачан: 7 раз
Статус: √ проверено
Размер: 745 MB
Как cкачать? Как скачать Встреча на переправе через торрент | qTorrent

% Раздел Тема Автор DL S | L
Кино СССР [ 745 MB ] Встреча на переправе [1963 СССР короткометражка VHSRip-AVC от AVP Studio] AVP Studio Скачать
1 | 0


>> Регистрируемся здесь <<






Отзывы и комментарии о схеме читаем и пишем здесь: ---> Отзывы и комментарии о схеме

Новые благодарочки в телеграм довольных пользователей:
скриншот   скриншот   скриншот   скриншот   скриншот
    Дорогой пользователь! Огромная просьба, поблагодарите релизера, оцените раздачу и оставьте свои комментарий, если Вы скачали Встреча на переправе через торрент бесплатно! Внесите свою лепту в развитие PiratBit!
    Комментировать посты могут только пользователи прошедшие не сложную регистрацию
    Показать сообщения:    

    Встреча на переправе через торрент
    Скачать бесплатно Встреча на переправе
    Встреча на переправе скачать торрент
    Встреча на переправе смотреть онлайн
    Cкачать фильм Встреча на переправе бесплатно
    Встреча на переправе скачать торрент в хорошем качестве
    Встреча на переправе смотреть онлайн бесплатно в хорошем качестве


    Вы не можете начинать темы
    Вы не можете отвечать на сообщения
    Вы не можете редактировать свои сообщения
    Вы не можете удалять свои сообщения
    Вы не можете голосовать в опросах
    Вы не можете прикреплять файлы к сообщениям
    Вы можете скачивать файлы