Ссылка на приватное зеркало нашего сайта всего за 1$. Внимание количество ограничено!!!

2 сезон

iTunes

1 сезон

1

2 сезон

2 сезон

iTunes

1 сезон

RePack

30

Ultimate

ВАЖНО

ИГРА 18+

pack

RePack

MK11
pack

Забери бонус

RePack

jed

!!Акция!!

Alien_Rage

RePack

fifa19

RePack

Assassins Creed: Odyssey

RePack

NEED FOR SPEED™ PAYBACK

4 сезон

9 сезон

Бесстыжие 9 сезон

Все сериалы

все сериалы на PB.wtf

RePack

FAR CRY 5
  

Мистер Мерседес / Mr. Mercedes / Сезон: 2 / Серии: 1-10 из 10 (Джек Бендер, Джон Дэвид Коулз, Кевин Хукс) [2018, триллер, WEB-DL 1080p] MVO [BaibaKo] pb.wtf

Мистер Мерседес через торрент pb.wtf

Размер: 26.76 GB | Добавлен: 2 года 1 мес. назад | Торрент скачан:20 раз
Скачать  

05-09-2018 04:33 Мистер Мерседес Скачать торрент  

Мистер Мерседес / Mr. Mercedes
Год выпуска: 2018
Страна: США
Жанр: триллер
Продолжительность: ~00:55:00 серия
Перевод: Профессиональный многоголосый |
Субтитры: отсутствуют

Режиссер: Джек Бендер, Джон Дэвид Коулз, Кевин Хукс

rating

В ролях:

Брендан Глисон (Bill Hodges), Джаррель Джером (Jerome Robinson), Гарри Тредэвэй (Brady Hartsfield), Роберт Стэнтон (Anthony «Robi» Frobisher), Брида Вул (Lou Linklatter), Холланд Тейлор (Ida Silver), Келли Линч (Deborah Hartsfield), Скотт Лоуренс (Pete Dixon), Эд Андерсон (Paulie), Мэри-Луиз Паркер (Janey Patterson), Джастин Люпе (Holly Gibney), Николь Барре (Detective Izzy Torres)

Описание:

Отставной полицейский Билл Ходжес возвращается к работе, так как ему не дает покоя нераскрытое дело — жестокое убийство восьми человек. Брейди Хартфилд не может забыть пьянящее чувство, когда на угнанном «мерседесе» он врезался в группу ни в чем не повинных людей. Брейди не хочет останавливаться — он уже планирует новое преступление, на этот раз намного более масштабное. Биллу Ходжесу и его команде необходимо опередить его и спасти жизнь уже не десяткам, а сотням людей.

Качество: WEB-DL 1080p
Формат: MKV

Видео: AVC, High@L4 5800 Кбит/сек, 1920x1080 (1.778), 23.976 кадра/сек
Аудио#1 ru: AC3, 640 Кбит/сек, 6 каналов, 48,0 КГц
Аудио#2 en: AC3, 640 Кбит/сек, 6 каналов, 48,0 КГц
скриншот   скриншот   скриншот   скриншот   скриншот  

скриншот   скриншот   скриншот   скриншот   скриншот  

Общее
Уникальный идентификатор : 250705845443783705645923179447928584879 (0xBC9C3082E54DB021B400B9F40E4D7AAF)
Полное имя : D:\Mr.Mercedes.s02.HD1080p.WEB-DL.Rus.Eng.BaibaKo.tv\Mr.Mercedes.s02e01.HD1080p.WEB-DL.Rus.Eng.BaibaKo.tv.mkv
Формат : Matroska
Версия формата : Version 4 / Version 2
Размер файла : 2,99 Гбайт
Продолжительность : 1 ч. 0 м.
Общий поток : 7060 Кбит/сек
Дата кодирования : UTC 2018-08-24 06:33:40
Программа кодирования : mkvmerge v9.4.0 ('Knurl') 64bit
Библиотека кодирования : libebml v1.3.4 + libmatroska v1.4.5

Видео
Идентификатор : 1
Формат : AVC
Формат/Информация : Advanced Video Codec
Профиль формата : High@L4
Параметр CABAC формата : Да
Параметр RefFrames формата : 4 кадра
Идентификатор кодека : V_MPEG4/ISO/AVC
Продолжительность : 1 ч. 0 м.
Битрейт : 5778 Кбит/сек
Ширина : 1920 пикселей
Высота : 1080 пикселей
Соотношение сторон : 16:9
Режим частоты кадров : Постоянный
Частота кадров : 23,976 (24000/1001) кадра/сек
Цветовое пространство : YUV
Субдискретизация насыщенности : 4:2:0
Битовая глубина : 8 бит
Тип развёртки : Прогрессивная
Бит/(Пиксели*Кадры) : 0.116
Размер потока : 2,45 Гбайт (82%)
Библиотека кодирования : x264 core 152 r2851 ba24899
Настройки программы : cabac=1 / ref=3 / deblock=1:0:0 / analyse=0x3:0x113 / me=hex / subme=7 / psy=1 / psy_rd=1.00:0.00 / mixed_ref=1 / me_range=16 / chroma_me=1 / trellis=1 / 8x8dct=1 / cqm=0 / deadzone=21,11 / fast_pskip=1 / chroma_qp_offset=-2 / threads=30 / lookahead_threads=5 / sliced_threads=0 / nr=0 / decimate=1 / interlaced=0 / bluray_compat=0 / constrained_intra=0 / bframes=3 / b_pyramid=2 / b_adapt=1 / b_bias=0 / direct=1 / weightb=1 / open_gop=0 / weightp=2 / keyint=240 / keyint_min=23 / scenecut=40 / intra_refresh=0 / rc_lookahead=40 / rc=crf / mbtree=1 / crf=18.0 / qcomp=0.60 / qpmin=0 / qpmax=69 / qpstep=4 / ip_ratio=1.40 / aq=1:1.00
Default : Нет
Forced : Нет

Аудио #1
Идентификатор : 2
Формат : AC-3
Формат/Информация : Audio Coding 3
Расширение режима : CM (complete main)
Параметр Endianness формата : Big
Идентификатор кодека : A_AC3
Продолжительность : 1 ч. 0 м.
Вид битрейта : Постоянный
Битрейт : 640 Кбит/сек
Каналы : 6 каналов
Расположение каналов : Front: L C R, Side: L R, LFE
Частота : 48,0 КГц
Частота кадров : 31,250 кадров/сек (1536 spf)
Метод сжатия : С потерями
Размер потока : 278 Мбайт (9%)
Язык : Russian
Default : Да
Forced : Нет

Аудио #2
Идентификатор : 3
Формат : AC-3
Формат/Информация : Audio Coding 3
Расширение режима : CM (complete main)
Параметр Endianness формата : Big
Идентификатор кодека : A_AC3
Продолжительность : 1 ч. 0 м.
Вид битрейта : Постоянный
Битрейт : 640 Кбит/сек
Каналы : 6 каналов
Расположение каналов : Front: L C R, Side: L R, LFE
Частота : 48,0 КГц
Частота кадров : 31,250 кадров/сек (1536 spf)
Метод сжатия : С потерями
Размер потока : 278 Мбайт (9%)
Язык : English
Default : Нет
Forced : Нет

Когда раздача ведётся путём добавления новых серий, при каждом добавлении создётся новый торрент. Чтобы начать докачку новой серии, пользователям необходимо сделать следующее:
(1) остановить скачивание,
(2) удалить старый торрент у себя из клиента (старые серии удалять не надо),
(3) скачать новый торрент и запустить его у себя в клиенте вместо старого, при этом указать клиенту путь в старую папку, куда и должно происходить скачивание новых серий.
Ваш клиент при этом должен произвести хеширование (проверку) старой папки (если не производит сам - помогите ему сделать это), и будет докачивать только те серии, которых у вас ещё нет. Старые серии при этом не удаляются, а продолжают раздаваться!
Eсли вы уже удалили старые серии, то предотвратить повторную закачку старых серий можно, отжав галочку в соответсвующих местах при запуске нового торрента. По возможности, желательно не удалять старые серии как можно дольше, чтобы релизер не столько продолжал раздавать старые серии, а смог сконцентрироваться на новых.
pb.wtf



Скачать Мистер Мерседес через торрент http://pic1.kartinco.top/images/11/r9adm.jpg Скачать фильм Мистер Мерседес через торрент бесплантно в хорошем качестве Описание: Отставной полицейский Билл Ходжес возвращается к работе, так как ему не дает покоя нераскрытое дело — жестокое убийство восьми ... 10 10 4
Info! Золотая раздача, скачанное не засчитывается.
Торрент: Зарегистрирован [2018-10-29 08:59] · скачан: 20 раз
Статус: √ проверено
Размер: 26.76 GB
Как cкачать? Как скачать Мистер Мерседес через торрент | qTorrent

% Раздел Тема Автор DL S | L
Зарубежные сериалы [ 9.49 GB ] Мистер Мерседес / Mr. Mercedes / Сезон: 2 / Серии: 1-10 из 10 [2018 WEBRip 720p] [MVO] killermax2013 Скачать
1 | 0
Зарубежные сериалы [ 23.07 GB ] Мистер Мерседес / Mr. Mercedes / Сезон: 2 / Серии: 1-10 из 10 [2018 WEB-DL 1080p] [MVO] killermax2013 Скачать
1 | 0
Зарубежные сериалы [ 6.06 GB ] Мистер Мерседес / Mr. Mercedes / Сезон: 2 / Серии 1-10 из 10 [2017 WEBRip] MVO [BaibaKo] GEKADOL Скачать
2 | 0
Зарубежные сериалы [ 26.35 GB ] Мистер Мерседес / Mr. Mercedes / Сезон: 2 / Серии: 1-10 из 10 [2018 WEB-DL 1080p] [MVO] [Jaskier] killermax2013 Скачать
1 | 0
Зарубежные сериалы [ 8.97 GB ] Мистер Мерседес / Mr. Mercedes / Сезон: 2 / Серии: 1-10 из 10 [2018 WEB-DL 720p] MVO [Jaskier] bober100 Скачать
1 | 0
Зарубежные сериалы [ 6.88 GB ] Мистер Мерседес / Mr. Mercedes / Сезон: 2 / Серии: 1-10 из 10 [2018 WEB-DLRip] MVO [Jaskier] bober100 Скачать
1 | 0
Зарубежные сериалы [ 6.6 GB ] Мистер Мерседес / Mr. Mercedes / Сезон: 2 / Серии: 1-10 из 10 [2018 WEB-DLRip] MVO [LostFilm] bober100 Скачать
2 | 0

28-11-2019 20:33  

Отключить всю рекламу на сайте

    Дорогой пользователь! Огромная просьба, поблагодарите релизера, оцените раздачу и оставьте свои комментарий, если Вы скачали Мистер Мерседес через торрент бесплатно! Внесите свою лепту в развитие PiratBit!
    Комментировать посты могут только пользователи прошедшие не сложную регистрацию
    Показать сообщения:    

    Мистер Мерседес через торрент
    Скачать бесплатно Мистер Мерседес
    Мистер Мерседес скачать торрент
    Мистер Мерседес смотреть онлайн
    Cкачать фильм Мистер Мерседес бесплатно
    Мистер Мерседес скачать торрент в хорошем качестве
    Мистер Мерседес смотреть онлайн бесплатно в хорошем качестве


    Вы не можете начинать темы
    Вы не можете отвечать на сообщения
    Вы не можете редактировать свои сообщения
    Вы не можете удалять свои сообщения
    Вы не можете голосовать в опросах
    Вы не можете прикреплять файлы к сообщениям
    Вы можете скачивать файлы