Ссылка на приватное зеркало нашего сайта всего за 1$. Внимание количество ограничено!!!

2 сезон

iTunes

1 сезон

1

2 сезон

2 сезон

iTunes

1 сезон

RePack

30

Новинка

ВАЖНО

ИГРА 18+

pack

RePack

MK11
pack

Забери бонус

RePack

jed

!!Акция!!

Alien_Rage

RePack

fifa19

RePack

Assassins Creed: Odyssey

RePack

NEED FOR SPEED™ PAYBACK

4 сезон

9 сезон

Бесстыжие 9 сезон

Все сериалы

все сериалы на PB.wtf

RePack

FAR CRY 5
  

Аквамен / Aquaman (Джеймс Ван) [2018, фантастика, фэнтези, боевик, BDRemux 1080p] DUB (rus, ukr) + MVO [HDRezka Studio] pb.wtf

Аквамен через торрент pb.wtf

Размер: 22.69 GB | Добавлен: 1 год 8 мес. назад | Торрент скачан:78 раз
Скачать  

18-03-2019 09:41 Аквамен Скачать торрент  

Аквамен / Aquaman««Океан зовёт»»

Год выпуска: 2018
Страна: Австралия, США
Жанр: фантастика, фэнтези, боевик, приключения
Продолжительность: 02:23:21
Перевод: Дублированный [Лицензия], Профессиональное многоголосое [HDRezka Studio]
Субтитры: Русские (Forced, full), украинские (Forced), английские
Режиссер: Джеймс Ван
В ролях:

Джейсон Момоа (Arthur), Эмбер Хёрд (Mera), Уиллем Дефо (Vulko), Патрик Уилсон (King Orm), Николь Кидман (Atlanna), Дольф Лундгрен (King Nereus), Яхья Абдул-Матин II (Manta), Темуэра Моррисон (Tom Curry), Луди Линь (Captain Murk), Майкл Бич (Jesse (Manta's Father)), Рэндолл Парк (Dr. Stephen Shin), Грэм МакТавиш (King Atlan)
Описание:
Действие фильма разворачивается в необъятном и захватывающем подводном мире семи морей, а сюжет знакомит зрителей с историей происхождения получеловека-полуатланта Артура Карри и ключевыми событиями его жизни - теми, что заставят его не только столкнуться с самим собой, но и выяснить, достоин ли он быть тем, кем ему суждено... царем!
Рейтинг:

MPAA: PG-13 - Детям до 13 лет просмотр не желателен
Качество: BDRemux 1080p
Формат: MKV
Видео: MPEG-4 AVC, 1920x1080, 19.5 Mbit/s, 23.976 fps
Аудио #01: 48 kHz, AC3, 5.1, 448 Kbps | Дублированный [Лицензия] | RUS |
Аудио #02: 48 kHz, AC3, 2.0, 192 Kbps | Профессиональный многоголосый [HDRezka Studio] | RUS |
Аудио #03: 48 kHz, AC3, 2.0, 160 Kbps | Дублированный | UKR |
Аудио #04: 48 kHz, DTS-HD MA, 5.1, 2363 Kbps | Оригинал | ENG |
Навигация по главам: Есть
General
Unique ID : 300056441089857340505708814490540377617 (0xE1BCC4BBC4C5A869671A305BD2130611)
Complete name : D:\Video111\Aquaman.2018.Lic.BDREMUX.1080p.seleZen.mkv
Format : Matroska
Format version : Version 4
File size : 22.7 GiB
Duration : 2 h 23 min
Overall bit rate mode : Variable
Overall bit rate : 22.7 Mb/s
Movie name : Aquaman 2018 from селезень
Encoded date : UTC 2019-03-18 08:40:54
Writing application : mkvmerge v32.0.0 ('Astral Progressions') 64-bit
Writing library : libebml v1.3.7 + libmatroska v1.5.0

Video
ID : 1
Format : AVC
Format/Info : Advanced Video Codec
Format profile : High@L4.1
Format settings : CABAC / 2 Ref Frames
Format settings, CABAC : Yes
Format settings, ReFrames : 2 frames
Codec ID : V_MPEG4/ISO/AVC
Duration : 2 h 23 min
Bit rate mode : Variable
Bit rate : 19.5 Mb/s
Width : 1 920 pixels
Height : 1 080 pixels
Display aspect ratio : 16:9
Frame rate mode : Constant
Frame rate : 23.976 (24000/1001) FPS
Color space : YUV
Chroma subsampling : 4:2:0
Bit depth : 8 bits
Scan type : Progressive
Bits/(Pixel*Frame) : 0.392
Stream size : 19.5 GiB (86%)
Language : English
Default : Yes
Forced : No

Audio #1
ID : 2
Format : AC-3
Format/Info : Audio Coding 3
Commercial name : Dolby Digital
Codec ID : A_AC3
Duration : 2 h 23 min
Bit rate mode : Constant
Bit rate : 448 kb/s
Channel(s) : 6 channels
Channel layout : L R C LFE Ls Rs
Sampling rate : 48.0 kHz
Frame rate : 31.250 FPS (1536 SPF)
Bit depth : 16 bits
Compression mode : Lossy
Stream size : 459 MiB (2%)
Title : Dub [License]
Language : Russian
Service kind : Complete Main
Default : Yes
Forced : Yes

Audio #2
ID : 3
Format : AC-3
Format/Info : Audio Coding 3
Commercial name : Dolby Digital
Codec ID : A_AC3
Duration : 2 h 23 min
Bit rate mode : Constant
Bit rate : 192 kb/s
Channel(s) : 2 channels
Channel layout : L R
Sampling rate : 48.0 kHz
Frame rate : 31.250 FPS (1536 SPF)
Bit depth : 16 bits
Compression mode : Lossy
Stream size : 197 MiB (1%)
Title : MVO [HDRezka Studio]
Language : Russian
Service kind : Complete Main
Default : No
Forced : No

Audio #3
ID : 4
Format : AC-3
Format/Info : Audio Coding 3
Commercial name : Dolby Digital
Codec ID : A_AC3
Duration : 2 h 23 min
Bit rate mode : Constant
Bit rate : 160 kb/s
Channel(s) : 2 channels
Channel layout : L R
Sampling rate : 48.0 kHz
Frame rate : 31.250 FPS (1536 SPF)
Bit depth : 16 bits
Compression mode : Lossy
Stream size : 164 MiB (1%)
Title : Dub [iTunes]
Language : Ukrainian
Service kind : Complete Main
Default : No
Forced : No

Audio #4
ID : 5
Format : DTS XLL
Format/Info : Digital Theater Systems
Commercial name : DTS-HD Master Audio
Codec ID : A_DTS
Duration : 2 h 23 min
Bit rate mode : Variable
Bit rate : 2 363 kb/s
Channel(s) : 6 channels
Channel layout : C L R Ls Rs LFE
Sampling rate : 48.0 kHz
Frame rate : 93.750 FPS (512 SPF)
Bit depth : 16 bits
Compression mode : Lossless
Stream size : 2.37 GiB (10%)
Title : Original
Language : English
Default : No
Forced : No

Text #1
ID : 6
Format : UTF-8
Codec ID : S_TEXT/UTF8
Codec ID/Info : UTF-8 Plain Text
Duration : 2 h 14 min
Bit rate : 1 b/s
Count of elements : 27
Stream size : 1.23 KiB (0%)
Title : Forced
Language : Russian
Default : Yes
Forced : Yes

Text #2
ID : 7
Format : UTF-8
Codec ID : S_TEXT/UTF8
Codec ID/Info : UTF-8 Plain Text
Duration : 2 h 22 min
Bit rate : 55 b/s
Count of elements : 1119
Stream size : 58.0 KiB (0%)
Title : Full
Language : Russian
Default : No
Forced : No

Text #3
ID : 8
Format : UTF-8
Codec ID : S_TEXT/UTF8
Codec ID/Info : UTF-8 Plain Text
Duration : 2 h 22 min
Bit rate : 1 b/s
Count of elements : 32
Stream size : 1.54 KiB (0%)
Title : Forced
Language : Ukrainian
Default : No
Forced : No

Text #4
ID : 9
Format : UTF-8
Codec ID : S_TEXT/UTF8
Codec ID/Info : UTF-8 Plain Text
Duration : 2 h 14 min
Bit rate : 38 b/s
Count of elements : 1132
Stream size : 37.5 KiB (0%)
Language : English
Default : No
Forced : No

Menu
00:00:00.000 : en:Chapter 01
00:11:09.294 : en:Chapter 02
00:22:11.622 : en:Chapter 03
00:30:11.018 : en:Chapter 04
00:40:28.718 : en:Chapter 05
00:50:24.647 : en:Chapter 06
01:01:15.755 : en:Chapter 07
01:08:57.091 : en:Chapter 08
01:21:41.271 : en:Chapter 09
01:34:50.435 : en:Chapter 10
01:39:37.430 : en:Chapter 11
01:49:32.816 : en:Chapter 12
02:01:36.539 : en:Chapter 13
02:10:19.895 : en:Chapter 14
pb.wtf



Скачать Аквамен через торрент https://c.radikal.ru/c37/1903/18/9eff9792062c.png Скачать фильм Аквамен через торрент бесплантно в хорошем качестве Описание: Действие фильма разворачивается в необъятном и захватывающем подводном мире семи морей, а сюжет знакомит зрителей с историей ... 5.5 10 2
Торрент: Зарегистрирован [2019-03-18 09:41] · скачан: 78 раз
Статус: √ проверено
Размер: 22.69 GB
Как cкачать? Как скачать Аквамен через торрент | qTorrent

% Раздел Тема Автор DL S | L
Фильмы (WEB-DL 720p, 1080p) [ 6.43 GB ] Аквамен / Aquaman [2018 WEB-DL 1080p] [IMAX Edition] MVO [HDRezka Studio] +DUB bober100 Скачать
11 | 0
3D Фильмы [ 16.94 GB ] Аквамен в 3Д / Aquaman 3D [2018 BDRip 1080p] DUB + MVO [HDRezka Studio] Half SideBySide sheker187 Скачать
2 | 0
Фильмы (WEB-DL 720p, 1080p) [ 6.25 GB ] Аквамен / Aquaman [2018 WEBRip 1080p] [IMAX Edition / Open Matte] MVO [HDRezka Studio] +DUB [] bober100 Скачать
1 | 0
Фильмы (Blu-ray, BD-Remux, HDDVD) [ 27.2 GB ] Аквамен / Aquaman [2018 BD Remux 1080p] [IMAX Edition] MVO [HDRezka Studio] +DUB [] bober100 Скачать
1 | 0
Фильмы [HD 720p, 1080p] (Хороший звук DUB, MVO) [ 15.97 GB ] Аквамен / Aquaman [2018 BDRip 1080p] [IMAX Edition] DUB + MVO [HDRezka Studio] sheker187 Скачать
1 | 0
Ultra HD (UHD: 2K, 4K, 8K) — видео сверхвысокой чёткости [ 37.97 GB ] Аквамен / Aquaman [2018 UHD BDRip 2160p] [IMAX Edition] [SDR] DUB + MVO [HDRezka Studio] sheker187 Скачать
1 | 0
Ultra HD (UHD: 2K, 4K, 8K) — видео сверхвысокой чёткости [ 26.49 GB ] Аквамен / Aquaman [2018 UHD BDRip 2160p] [IMAX Edition] DUB + MVO [HDRezka Studio] sheker187 Скачать
1 | 0

28-11-2019 20:33  

Отключить всю рекламу на сайте

    Дорогой пользователь! Огромная просьба, поблагодарите релизера, оцените раздачу и оставьте свои комментарий, если Вы скачали Аквамен через торрент бесплатно! Внесите свою лепту в развитие PiratBit!
    Комментировать посты могут только пользователи прошедшие не сложную регистрацию
    Показать сообщения:    

    Аквамен через торрент
    Скачать бесплатно Аквамен
    Аквамен скачать торрент
    Аквамен смотреть онлайн
    Cкачать фильм Аквамен бесплатно
    Аквамен скачать торрент в хорошем качестве
    Аквамен смотреть онлайн бесплатно в хорошем качестве


    Вы не можете начинать темы
    Вы не можете отвечать на сообщения
    Вы не можете редактировать свои сообщения
    Вы не можете удалять свои сообщения
    Вы не можете голосовать в опросах
    Вы не можете прикреплять файлы к сообщениям
    Вы можете скачивать файлы