Ссылка на приватное зеркало нашего сайта всего за 1$. Внимание количество ограничено!!!

2 сезон

iTunes

1 сезон

1

iTunes

iTunes

iTunes

1 сезон

RePack

30

ИГРА 18+

pack

ВАЖНО

!!Акция!!

Alien_RageХит недели

RePack

MK11
pack

Забери бонус

RePack

jed

!!Акция!!

Alien_Rage

RePack

fifa19

RePack

Assassins Creed: Odyssey

RePack

NEED FOR SPEED™ PAYBACK

4 сезон

9 сезон

Бесстыжие 9 сезон

Все сериалы

все сериалы на PB.wtf

RePack

FAR CRY 5
  

Машкин дом / Серии: 1-4 из 4 (Екатерина Побединская) [2017, мелодрама, WEBRip 1080p] pb.wtf

Машкин дом через торрент pb.wtf

Размер: 3.04 GB | Добавлен: 1 год 7 мес. назад | Торрент скачан:34 раза
Скачать  

18-03-2019 10:01 Машкин дом Скачать торрент  

Машкин дом Год выпуска: 2017
Производство: КИНОМИР
Жанр: мелодрама
Продолжительность: ~00:36:00 серия
Субтитры: нет

Режиссёр: Екатерина Побединская

В ролях: Павел Крайнов, Ольга Лерман, Денис Матросов, Татьяна Яковенко, Михаил Хмуров, Евгения Осипова, Вячеслав Дробинков

Описание:

Маша любит Юру и со дня на день ждёт от него предложения руки и сердца. Но вот в больницу, где она работает, привозят пострадавших в автомобильной аварии. Одним из них оказывается Юра, а другой – его жена Юля. Юра пытается что-то объяснить, но как можно оправдать ложь? Проведя сложную операцию, Маша отправляется залечивать сердечные раны в родной Левореченск. Она надеется выплакаться на плече у лучшей подруги. Но подруга скрывает какую-то тайну, и эта тайна явно имеет отношение к Маше…

Sample

Качество: WEBRip 1080p
Формат: MKV

Видео кодек: H.264
Аудио кодек: AC3

Видео: MPEG4 AVC Video, H264, 16:9, 1920x1080, 25 fps, ~2700 kbps, 0.052 bit/pixel
Аудио: AC3 Dolby Digital, 44.1 kHz, 2/0 (L,R) ch, 192 kbps
General
Unique ID : 234797813888356861818901597699642315578 (0xB0A46A00204AD155A9198C473B25533A)
Complete name : D:\Mashkin.dom.2017.WEBRip(1080р).Kinozal-Reliz.by.Olyanchik.Mashkin.dom.2017.WEBRip(1080р).Kinozal-Reliz.by.Olyanchik.mkv
Format : Matroska
Format version : Version 4 / Version 2
File size : 766 MiB
Duration : 36mn 24s
Overall bit rate : 2 944 Kbps
Encoded date : UTC 2017-12-17 16:45:36
Writing application : mkvmerge v9.6.0 ('Slave To Your Mind') 64bit
Writing library : libebml v1.3.4 + libmatroska v1.4.5
DURATION : 00:36:24.150000000
NUMBER_OF_FRAMES : 62709
NUMBER_OF_BYTES : 52419604
_STATISTICS_WRITING_APP : mkvmerge v9.6.0 ('Slave To Your Mind') 64bit
_STATISTICS_WRITING_DATE_UTC : 2017-12-17 16:45:36
_STATISTICS_TAGS : BPS DURATION NUMBER_OF_FRAMES NUMBER_OF_BYTES

Video
ID : 1
Format : AVC
Format/Info : Advanced Video Codec
Format profile : High@L4.0
Format settings, CABAC : Yes
Format settings, ReFrames : 2 frames
Codec ID : V_MPEG4/ISO/AVC
Duration : 36mn 24s
Bit rate : 2 693 Kbps
Width : 1 920 pixels
Height : 1 080 pixels
Display aspect ratio : 16:9
Frame rate mode : Constant
Frame rate : 25.000 fps
Color space : YUV
Chroma subsampling : 4:2:0
Bit depth : 8 bits
Scan type : Progressive
Bits/(Pixel*Frame) : 0.052
Stream size : 701 MiB (91%)
Default : Yes
Forced : No
Color primaries : BT.709
Transfer characteristics : BT.709
Matrix coefficients : BT.709

Audio
ID : 2
Format : AC-3
Format/Info : Audio Coding 3
Mode extension : CM (complete main)
Format settings, Endianness : Big
Codec ID : A_AC3
Duration : 36mn 24s
Bit rate mode : Constant
Bit rate : 192 Kbps
Channel count : 2 channels
Channel positions : Front: L R
Sampling rate : 44.1 KHz
Bit depth : 16 bits
Compression mode : Lossy
Stream size : 50.0 MiB (7%)
Default : Yes
Forced : No
скриншот  скриншот  скриншот  скриншот  скриншот  
pb.wtf



Скачать Машкин дом через торрент http://i103.fastpic.ru/big/2017/1217/a3/f33c904f2a087f849bf49f15dee685a3.jpg Скачать фильм Машкин дом через торрент бесплантно в хорошем качестве Описание: Маша любит Юру и со дня на день ждёт от него предложения руки и сердца. Но вот в больницу, где она работает, привозят ... 10 10 4
Торрент: Зарегистрирован [2019-03-18 10:01] · скачан: 34 раз
Статус: √ проверено
Размер: 3.04 GB
Как cкачать? Как скачать Машкин дом через торрент | qTorrent

% Раздел Тема Автор DL S | L
Наши сериалы [ 1.96 GB ] Машкин дом / Серии 1-4 из 4 / [2017 Мело SATRip] oleg8 Скачать
1 | 0

28-11-2019 20:33  

Отключить всю рекламу на сайте

    Дорогой пользователь! Огромная просьба, поблагодарите релизера, оцените раздачу и оставьте свои комментарий, если Вы скачали Машкин дом через торрент бесплатно! Внесите свою лепту в развитие PiratBit!
    Комментировать посты могут только пользователи прошедшие не сложную регистрацию
    Показать сообщения:    

    Машкин дом через торрент
    Скачать бесплатно Машкин дом
    Машкин дом скачать торрент
    Машкин дом смотреть онлайн
    Cкачать фильм Машкин дом бесплатно
    Машкин дом скачать торрент в хорошем качестве
    Машкин дом смотреть онлайн бесплатно в хорошем качестве


    Вы не можете начинать темы
    Вы не можете отвечать на сообщения
    Вы не можете редактировать свои сообщения
    Вы не можете удалять свои сообщения
    Вы не можете голосовать в опросах
    Вы не можете прикреплять файлы к сообщениям
    Вы можете скачивать файлы