Ссылка на приватное зеркало нашего сайта всего за 1$. Внимание количество ограничено!!!

2 сезон

iTunes

1 сезон

1

2 сезон

2 сезон

iTunes

1 сезон

RePack

30

Ultimate

ВАЖНО

ИГРА 18+

pack

RePack

MK11
pack

Забери бонус

RePack

jed

!!Акция!!

Alien_Rage

RePack

fifa19

RePack

Assassins Creed: Odyssey

RePack

NEED FOR SPEED™ PAYBACK

4 сезон

9 сезон

Бесстыжие 9 сезон

Все сериалы

все сериалы на PB.wtf

RePack

FAR CRY 5
  

Восход Эдерлези / A.I. Rising (Лазар Бодрожа) [2018, Фантастика, драма, мелодрама, WEB-DL 1080p] MVO [СВ Студия] pb.wtf

Восход Эдерлези через торрент pb.wtf

Размер: 5.67 GB | Добавлен: 1 год 8 мес. назад | Торрент скачан:235 раз
Скачать  

18-03-2019 10:21 Восход Эдерлези Скачать торрент  

Восход Эдерлези / A.I. Rising Год выпуска: 2018
Страна: Сербия
Жанр: Фантастика, драма, мелодрама
Продолжительность: 01:27:30
Перевод: Профессиональный (многоголосый) | СВ Студия | Ненормативная лексика
Субтитры: английские

Режиссер: Лазар Бодрожа

rating


В ролях:

Себастьян Кавацца, Стоя, Маруша Майер, Кирсти Бестерман

Описание:

2048 год. Космонавт Милютин, работающий на корпорацию Эдерлези, отправляется в экспедицию к Альфе Центавра в компании андроида Нимани. Во время долгого путешествия он влюбляется в робота, и космонавту начинает казаться, будто женщина реальна.

Качество: WEB-DL 1080p
Формат: MKV

Видео: MPEG-4 AVC, 8259 Kбит/с, 1920x1080, 23.976 кадр/с
Аудио#1: Русский ( АС3, 6ch, 384 Кбит/с, 48.0 KHz) Профессиональный (многоголосый, закадровый) СВ Студия
Аудио#2: Английский ( E-AC3, 6ch, 640 Кбит/с, 48.0 KHz)
скриншот  скриншот  скриншот  скриншот  скриншот  

Источник: A.I.Rising.2018.1080p.AMZN.WEB-DL.DDP5.1.x264-NTG
General
Unique ID : 221047145716047356050688970464372584376 (0xA64C21B775126B52BE0A208AA4B1EFB8)
Complete name : A.I.Rising.2018.WEB-DL.1080p.mkv
Format : Matroska
Format version : Version 4 / Version 2
File size : 5.67 GiB
Duration : 1 h 27 min
Overall bit rate : 9 286 kb/s
Encoded date : UTC 2019-03-18 07:51:38
Writing application : mkvmerge v7.1.0 ('Good Love') 64bit built on Jul 27 2014 13:06:55
Writing library : libebml v1.3.0 + libmatroska v1.4.1

Video
ID : 1
Format : AVC
Format/Info : Advanced Video Codec
Format profile : High@L4
Format settings, CABAC : Yes
Format settings, RefFrames : 4 frames
Codec ID : V_MPEG4/ISO/AVC
Duration : 1 h 27 min
Bit rate mode : Constant
Bit rate : 8 259 kb/s
Nominal bit rate : 10 000 kb/s
Width : 1 920 pixels
Height : 1 080 pixels
Display aspect ratio : 16:9
Frame rate mode : Constant
Frame rate : 23.976 (24000/1001) FPS
Color space : YUV
Chroma subsampling : 4:2:0
Bit depth : 8 bits
Scan type : Progressive
Bits/(Pixel*Frame) : 0.166
Stream size : 5.05 GiB (89%)
Language : English
Default : Yes
Forced : No
Color range : Limited
Color primaries : BT.709
Transfer characteristics : BT.709
Matrix coefficients : BT.709

Audio #1
ID : 2
Format : AC-3
Format/Info : Audio Coding 3
Format settings, Endianness : Big
Codec ID : A_AC3
Duration : 1 h 27 min
Bit rate mode : Constant
Bit rate : 384 kb/s
Channel(s) : 6 channels
Channel positions : Front: L C R, Side: L R, LFE
Sampling rate : 48.0 kHz
Frame rate : 31.250 FPS (1536 SPF)
Bit depth : 16 bits
Compression mode : Lossy
Stream size : 240 MiB (4%)
Title : MVO | СВ Студия
Language : Russian
Service kind : Complete Main
Default : Yes
Forced : No

Audio #2
ID : 3
Format : E-AC-3
Format/Info : Enhanced Audio Coding 3
Format settings, Endianness : Big
Codec ID : A_EAC3
Duration : 1 h 27 min
Bit rate mode : Constant
Bit rate : 640 kb/s
Channel(s) : 6 channels
Channel positions : Front: L C R, Side: L R, LFE
Sampling rate : 48.0 kHz
Frame rate : 187.500 FPS (256 SPF)
Compression mode : Lossy
Stream size : 401 MiB (7%)
Language : English
Service kind : Complete Main
Default : No
Forced : No

Text #1
ID : 4
Format : UTF-8
Codec ID : S_TEXT/UTF8
Codec ID/Info : UTF-8 Plain Text
Duration : 1 h 18 min
Bit rate : 43 b/s
Count of elements : 706
Stream size : 24.9 KiB (0%)
Language : English
Default : No
Forced : No

Text #2
ID : 5
Format : UTF-8
Codec ID : S_TEXT/UTF8
Codec ID/Info : UTF-8 Plain Text
Duration : 1 h 25 min
Bit rate : 43 b/s
Count of elements : 771
Stream size : 27.2 KiB (0%)
Title : SDH
Language : English
Default : No
Forced : No

pb.wtf



Скачать Восход Эдерлези через торрент https://c.radikal.ru/c22/1903/61/9957ed8aedec.png Скачать фильм Восход Эдерлези через торрент бесплантно в хорошем качестве Описание: 2048 год. Космонавт Милютин, работающий на корпорацию Эдерлези, отправляется в экспедицию к Альфе Центавра в компании андроида ... 10 10 7
Торрент: Зарегистрирован [2019-03-18 10:21] · скачан: 235 раз
Статус: √ проверено
Размер: 5.67 GB
Как cкачать? Как скачать Восход Эдерлези через торрент | qTorrent

% Раздел Тема Автор DL S | L
Фильмы 2018 [DVDrip, WEB-DLRip, HDrip] (DUB, MVO) [ 1.42 GB ] Восход Эдерлези / Нимани / A.I. Rising [2018 BDRip] MVO Twi7ter Скачать
6 | 1
Фильмы [HD 720p, 1080p] (Хороший звук DUB, MVO) [ 7.84 GB ] Восход Эдерлези / Нимани / A.I. Rising [2018 BDRip 1080p] 3xMVO [ СВ Студия HDRezka Studio] bober100 Скачать
1 | 0
Фильмы (Blu-ray, BD-Remux, HDDVD) [ 16.16 GB ] Восход Эдерлези / Нимани / A.I. Rising [2018 BD Remux 1080p] 3xMVO [ СВ Студия HDRezka Studio] bober100 Скачать
2 | 0
Фильмы 2018 [DVDrip, WEB-DLRip, HDrip] (DUB, MVO) [ 745 MB ] Восход Эдерлези / Нимани / A.I. Rising [2018 HDRip] MVO bober100 Скачать
2 | 0
Фильмы 2018 [DVDrip, WEB-DLRip, HDrip] (DUB, MVO) [ 1.42 GB ] Восход Эдерлези / Нимани / A.I. Rising [2018 BDRip-AVC] MVO bober100 Скачать
1 | 0
Фильмы 2018 [DVDrip, WEB-DLRip, HDrip] (DUB, MVO) [ 2.86 GB ] Восход Эдерлези / Нимани / A.I. Rising [2018 BDRip-AVC] 3xMVO [ СВ Студия HDRezka Studio] bober100 Скачать
1 | 0
Фильмы 2018 [DVDrip, WEB-DLRip, HDrip] (DUB, MVO) [ 1.46 GB ] Восход Эдерлези / Нимани / A.I. Rising [2018 BDRip] MVO bober100 Скачать
1 | 0

28-11-2019 20:33  

Отключить всю рекламу на сайте

    Дорогой пользователь! Огромная просьба, поблагодарите релизера, оцените раздачу и оставьте свои комментарий, если Вы скачали Восход Эдерлези через торрент бесплатно! Внесите свою лепту в развитие PiratBit!
    Комментировать посты могут только пользователи прошедшие не сложную регистрацию
    Показать сообщения:    

    Восход Эдерлези через торрент
    Скачать бесплатно Восход Эдерлези
    Восход Эдерлези скачать торрент
    Восход Эдерлези смотреть онлайн
    Cкачать фильм Восход Эдерлези бесплатно
    Восход Эдерлези скачать торрент в хорошем качестве
    Восход Эдерлези смотреть онлайн бесплатно в хорошем качестве


    Вы не можете начинать темы
    Вы не можете отвечать на сообщения
    Вы не можете редактировать свои сообщения
    Вы не можете удалять свои сообщения
    Вы не можете голосовать в опросах
    Вы не можете прикреплять файлы к сообщениям
    Вы можете скачивать файлы