Anonymous, доброй ночи, присоединяйтесь к нам в Telegram!, здесь всегда актуальный адрес сайта, оперативная поддержка и многое другое!

>

5.5

iTunes

7.4

iTunes

7.9

iTunes

1

7.7

1 сезон

6.8

iTunes

7.3

1 сезон

13

6.7

1 сезон

8.3

RePack

30

ULTIMATE

pack

9.9

Лицензия

ВАЖНО

ИГРА 18+

pack

7.3

RePack

MK11

7.7

RePack

jed

7.8

RePack

fifa19

8.5

RePack

RDR2

RePack

NEED FOR SPEED™ PAYBACK

4 сезон

9 сезон

Бесстыжие 9 сезон

Все сериалы

все сериалы на PB.wtf

RePack

FAR CRY 5

Anonymous, доброй ночи, мы катастрофически не успеваем собрать деньги на оплату серверов, помогите нам пожалуйста 5,10,15р., для нас важна любая помощь . В качестве благодарности мы отключим Вам всю рекламу на сайте (укажите свой ник в строку Ваше имя)!

×
  
Magnet ссылка

Адаптация / Сезон: 1-2 / Серии: 1-37 из 37 (Александр Назаров) [2017-2019, комедия, WEB-DL 1080p] pb.wtf

Адаптация через торрент pb.wtf

Качают: 1 [ 0 KB/s ]
Размер: 31.12 GB | Добавлен: 2 года 6 мес. назад | Торрент скачан:87 раз
Смотреть онлайн Адаптация | Скачать    Ребята, помогите собрать деньги на оплату серверов!!!

18-03-2019 13:14 Адаптация Скачать торрент  

Адаптация Год выпуска: 2017-2019
Страна: Россия
Жанр: комедия
Продолжительность: ~ 00:25:00 (Серия)
Субтитры: отсутствуют

Режиссер: Александр Назаров

rating


В ролях:

Леонид Бичевин, Юрий Стоянов, Питер Джейкобсон, Евгения Брик, Артур Бесчастный, Ася Дубровская, Аружан Джазильбекова, Елена Ласкавая, Нелли Уварова, Александр Лыков, Александр Ильин

Описание:

Агент ЦРУ Эштон Айви возвращается в Ноябрьск, чтобы забрать в Америку свою любовь Марину, а заодно помочь России защитить свои природные богатства. В Ноябрьске нет Диснейленда, знаменитой картинной галереи или шикарного пляжа. Здесь даже собора со шпилем нет. Тем не менее этот город регулярно посещают сомнительные личности вроде американского шпиона Эштона Айви. Вот и сейчас агент снова в России. Он далеко не новичок, поэтому прибыл в Ноябрьск один, без прикрытия ЦРУ. Главная задача Айви в этот раз — увезти в Штаты свою любимую женщину Марину. Ради нее он готов рискнуть не только своей карьерой, но и жизнью. Сумев улизнуть от бывших коллег, он тут же попал на крючок российских спецслужб. Его оппонент – полковник контрразведки Евдокимов вербует американца и вынуждает принять участие в операции государственной важности. Китайские товарищи положили глаз на российский газ и хотят забрать себе стратегическое месторождение. Ради обретения своей любимой Эштону придется принять предложение, поэтому американцу ничего не остается кроме как сказать: «Служу России!».

Качество: WEB-DL 1080p
Формат: MKV

Видео: MPEG-4 AVC, ~ 5000 Кбит/с, 1920x1080
Аудио: AC3, 2 ch, 192 Кбит/с
скриншот  скриншот  скриншот  скриншот  

Общее
Уникальный идентификатор : 234537546815366579427490947658634438399 (0xB07249D7D34B55159450FE5359E326FF)
Полное имя : D:\Adaptaciya.2017.WEB-DL.(1080p).ExKinoRay\Adaptaciya.s01.e01.2017.WEB-DL.(1080p).ExKinoRay.mkv
Формат : Matroska
Версия формата : Version 2
Размер файла : 908 Мбайт
Продолжительность : 24 м. 36 с.
Режим общего битрейта : Постоянный
Общий поток : 5159 Кбит/сек
Дата кодирования : UTC 2018-11-11 01:46:59
Программа кодирования : mkvmerge v5.8.0 ('No Sleep / Pillow') built on Sep 2 2012 15:37:04
Библиотека кодирования : libebml v1.2.3 + libmatroska v1.3.0

Видео
Идентификатор : 1
Формат : AVC
Формат/Информация : Advanced Video Codec
Профиль формата : Baseline@L4
Параметр CABAC формата : Нет
Параметр RefFrames формата : 4 кадра
Идентификатор кодека : V_MPEG4/ISO/AVC
Продолжительность : 24 м. 36 с.
Вид битрейта : Постоянный
Битрейт : 5000 Кбит/сек
Ширина : 1920 пикселей
Высота : 1080 пикселей
Соотношение сторон : 16:9
Режим частоты кадров : Постоянный
Частота кадров : 25,000 кадров/сек
Стандарт вещания : PAL
Цветовое пространство : YUV
Субдискретизация насыщенности : 4:2:0
Битовая глубина : 8 бит
Тип развёртки : Прогрессивная
Бит/(Пиксели*Кадры) : 0.096
Размер потока : 856 Мбайт (94%)
Язык : Russian
Default : Да
Forced : Нет
Цветовой диапазон : Limited
Основные цвета : BT.709
Характеристики трансфера : BT.709
Коэффициенты матрицы : BT.709

Аудио
Идентификатор : 2
Формат : AC-3
Формат/Информация : Audio Coding 3
Расширение режима : CM (complete main)
Параметр Endianness формата : Big
Идентификатор кодека : A_AC3
Продолжительность : 24 м. 36 с.
Вид битрейта : Постоянный
Битрейт : 192 Кбит/сек
Каналы : 2 канала
Расположение каналов : Front: L R
Частота : 48,0 КГц
Частота кадров : 31,250 кадров/сек (1536 spf)
Метод сжатия : С потерями
Размер потока : 33,8 Мбайт (4%)
Язык : Russian
Default : Да
Forced : Нет

Когда раздача ведётся путём добавления новых серий, при каждом добавлении создётся новый торрент. Чтобы начать докачку новой серии, пользователям необходимо сделать следующее:
(1) остановить скачивание,
(2) удалить старый торрент у себя из клиента (старые серии удалять не надо),
(3) скачать новый торрент и запустить его у себя в клиенте вместо старого, при этом указать клиенту путь в старую папку, куда и должно происходить скачивание новых серий.
Ваш клиент при этом должен произвести хеширование (проверку) старой папки (если не производит сам - помогите ему сделать это), и будет докачивать только те серии, которых у вас ещё нет. Старые серии при этом не удаляются, а продолжают раздаваться!
Eсли вы уже удалили старые серии, то предотвратить повторную закачку старых серий можно, отжав галочку в соответсвующих местах при запуске нового торрента. По возможности, желательно не удалять старые серии как можно дольше, чтобы релизёр не столько продолжал раздавать старые серии, а смог сконцентрироваться на новых.
pb.wtf



Скачать Адаптация через торрент http://img16.lostpic.net/2019/03/18/d5e45a9dfa88c7bbd1c74fc9e050712d.jpg Скачать, смотреть онлайн Адаптация бесплантно в хорошем качестве Описание: Агент ЦРУ Эштон Айви возвращается в Ноябрьск, чтобы забрать в Америку свою любовь Марину, а заодно помочь России защитить свои ... 10 10 10
Торрент: Зарегистрирован [2019-04-03 10:57] · скачан: 87 раз
Статус: √ проверено
Размер: 31.12 GB
Как cкачать? Как скачать Адаптация через торрент | UTorrent

28-11-2019 20:33  

Отключить всю рекламу на сайте

    Дорогой пользователь! Огромная просьба, поблагодарите релизера, оцените раздачу и оставьте свои комментарий, если Вы скачали Адаптация через торрент бесплатно!
    Комментировать посты могут только пользователи прошедшие не сложную регистрацию
    Показать сообщения:    

    Адаптация через торрент
    Скачать бесплатно Адаптация
    Адаптация скачать торрент
    Адаптация смотреть онлайн
    Cкачать фильм Адаптация бесплатно
    Адаптация скачать торрент в хорошем качестве
    Адаптация смотреть онлайн бесплатно в хорошем качестве


    Вы не можете начинать темы
    Вы не можете отвечать на сообщения
    Вы не можете редактировать свои сообщения
    Вы не можете удалять свои сообщения
    Вы не можете голосовать в опросах
    Вы не можете прикреплять файлы к сообщениям
    Вы можете скачивать файлы